  0
SECTION
  2
HEADER
  9
$ACADVER
  1
AC1015
  9
$ACADMAINTVER
 70
     6
  9
$DWGCODEPAGE
  3
ANSI_1252
  9
$INSBASE
 10
0.0
 20
0.0
 30
0.0
  9
$EXTMIN
 10
-0.939693
 20
-0.984808
 30
0.0
  9
$EXTMAX
 10
13.0
 20
12.984808
 30
0.0
  9
$LIMMIN
 10
0.0
 20
0.0
  9
$LIMMAX
 10
0.0
 20
0.0
  9
$ORTHOMODE
 70
     0
  9
$REGENMODE
 70
     1
  9
$FILLMODE
 70
     1
  9
$QTEXTMODE
 70
     0
  9
$MIRRTEXT
 70
     1
  9
$LTSCALE
 40
1.0
  9
$ATTMODE
 70
     1
  9
$TEXTSIZE
 40
0.2
  9
$TRACEWID
 40
0.05
  9
$TEXTSTYLE
  7
Standard
  9
$CLAYER
  8
0
  9
$CELTYPE
  6
Continuous
  9
$CECOLOR
 62
   256
  9
$CELTSCALE
 40
1.0
  9
$DISPSILH
 70
     0
  9
$DIMSCALE
 40
1.0
  9
$DIMASZ
 40
0.18
  9
$DIMEXO
 40
0.0625
  9
$DIMDLI
 40
0.38
  9
$DIMRND
 40
0.0
  9
$DIMDLE
 40
0.0
  9
$DIMEXE
 40
0.18
  9
$DIMTP
 40
0.0
  9
$DIMTM
 40
0.0
  9
$DIMTXT
 40
0.18
  9
$DIMCEN
 40
0.09
  9
$DIMTSZ
 40
0.0
  9
$DIMTOL
 70
     0
  9
$DIMLIM
 70
     0
  9
$DIMTIH
 70
     1
  9
$DIMTOH
 70
     1
  9
$DIMSE1
 70
     0
  9
$DIMSE2
 70
     0
  9
$DIMTAD
 70
     0
  9
$DIMZIN
 70
     0
  9
$DIMBLK
  1

  9
$DIMASO
 70
     1
  9
$DIMSHO
 70
     1
  9
$DIMPOST
  1

  9
$DIMAPOST
  1

  9
$DIMALT
 70
     0
  9
$DIMALTD
 70
     2
  9
$DIMALTF
 40
25.4
  9
$DIMLFAC
 40
1.0
  9
$DIMTOFL
 70
     0
  9
$DIMTVP
 40
0.0
  9
$DIMTIX
 70
     0
  9
$DIMSOXD
 70
     0
  9
$DIMSAH
 70
     0
  9
$DIMBLK1
  1

  9
$DIMBLK2
  1

  9
$DIMSTYLE
  2
Standard
  9
$DIMCLRD
 70
     0
  9
$DIMCLRE
 70
     0
  9
$DIMCLRT
 70
     0
  9
$DIMTFAC
 40
1.0
  9
$DIMGAP
 40
0.09
  9
$DIMJUST
 70
     0
  9
$DIMSD1
 70
     0
  9
$DIMSD2
 70
     0
  9
$DIMTOLJ
 70
     1
  9
$DIMTZIN
 70
     0
  9
$DIMALTZ
 70
     0
  9
$DIMALTTZ
 70
     0
  9
$DIMUPT
 70
     0
  9
$DIMDEC
 70
     4
  9
$DIMTDEC
 70
     4
  9
$DIMALTU
 70
     2
  9
$DIMALTTD
 70
     2
  9
$DIMTXSTY
  7
Standard
  9
$DIMAUNIT
 70
     0
  9
$DIMADEC
 70
     0
  9
$DIMALTRND
 40
0.0
  9
$DIMAZIN
 70
     0
  9
$DIMDSEP
 70
    46
  9
$DIMATFIT
 70
     3
  9
$DIMFRAC
 70
     0
  9
$DIMLDRBLK
  1

  9
$DIMLUNIT
 70
     2
  9
$DIMLWD
 70
    -2
  9
$DIMLWE
 70
    -2
  9
$DIMTMOVE
 70
     0
  9
$LUNITS
 70
     2
  9
$LUPREC
 70
     4
  9
$SKETCHINC
 40
0.1
  9
$FILLETRAD
 40
0.0
  9
$AUNITS
 70
     0
  9
$AUPREC
 70
     0
  9
$MENU
  1
acad
  9
$ELEVATION
 40
0.0
  9
$PELEVATION
 40
0.0
  9
$THICKNESS
 40
0.0
  9
$LIMCHECK
 70
     0
  9
$CHAMFERA
 40
0.0
  9
$CHAMFERB
 40
0.0
  9
$CHAMFERC
 40
0.0
  9
$CHAMFERD
 40
0.0
  9
$SKPOLY
 70
     0
  9
$TDCREATE
 40
2456890.734583333
  9
$TDUCREATE
 40
0.000000000
  9
$TDUPDATE
 40
2456890.734583333
  9
$TDUUPDATE
 40
0.000000000
  9
$TDINDWG
 40
0.0000000000
  9
$TDUSRTIMER
 40
0.0000000000
  9
$USRTIMER
 70
     1
  9
$ANGBASE
 50
0.0
  9
$ANGDIR
 70
     0
  9
$PDMODE
 70
     0
  9
$PDSIZE
 40
0.0
  9
$PLINEWID
 40
0.0
  9
$SPLFRAME
 70
     0
  9
$SPLINETYPE
 70
     6
  9
$SPLINESEGS
 70
     8
  9
$HANDSEED
  5
3A0
  9
$SURFTAB1
 70
     6
  9
$SURFTAB2
 70
     6
  9
$SURFTYPE
 70
     6
  9
$SURFU
 70
     6
  9
$SURFV
 70
     6
  9
$UCSBASE
  2

  9
$UCSNAME
  2

  9
$UCSORG
 10
0.0
 20
0.0
 30
0.0
  9
$UCSXDIR
 10
1.0
 20
0.0
 30
0.0
  9
$UCSYDIR
 10
0.0
 20
1.0
 30
0.0
  9
$UCSORTHOREF
  2

  9
$UCSORTHOVIEW
 70
     0
  9
$UCSORGTOP
 10
0.0
 20
0.0
 30
0.0
  9
$UCSORGBOTTOM
 10
0.0
 20
0.0
 30
0.0
  9
$UCSORGLEFT
 10
0.0
 20
0.0
 30
0.0
  9
$UCSORGRIGHT
 10
0.0
 20
0.0
 30
0.0
  9
$UCSORGFRONT
 10
0.0
 20
0.0
 30
0.0
  9
$UCSORGBACK
 10
0.0
 20
0.0
 30
0.0
  9
$PUCSBASE
  2

  9
$PUCSNAME
  2

  9
$PUCSORG
 10
0.0
 20
0.0
 30
0.0
  9
$PUCSXDIR
 10
1.0
 20
0.0
 30
0.0
  9
$PUCSYDIR
 10
0.0
 20
1.0
 30
0.0
  9
$PUCSORTHOREF
  2

  9
$PUCSORTHOVIEW
 70
     0
  9
$PUCSORGTOP
 10
0.0
 20
0.0
 30
0.0
  9
$PUCSORGBOTTOM
 10
0.0
 20
0.0
 30
0.0
  9
$PUCSORGLEFT
 10
0.0
 20
0.0
 30
0.0
  9
$PUCSORGRIGHT
 10
0.0
 20
0.0
 30
0.0
  9
$PUCSORGFRONT
 10
0.0
 20
0.0
 30
0.0
  9
$PUCSORGBACK
 10
0.0
 20
0.0
 30
0.0
  9
$USERI1
 70
     0
  9
$USERI2
 70
     0
  9
$USERI3
 70
     0
  9
$USERI4
 70
     0
  9
$USERI5
 70
     0
  9
$USERR1
 40
0.0
  9
$USERR2
 40
0.0
  9
$USERR3
 40
0.0
  9
$USERR4
 40
0.0
  9
$USERR5
 40
0.0
  9
$WORLDVIEW
 70
     1
  9
$SHADEDGE
 70
     3
  9
$SHADEDIF
 70
    70
  9
$TILEMODE
 70
     1
  9
$MAXACTVP
 70
    16
  9
$PINSBASE
 10
0.0
 20
0.0
 30
0.0
  9
$PLIMCHECK
 70
     0
  9
$PEXTMIN
 10
1.000000E+20
 20
1.000000E+20
 30
1.000000E+20
  9
$PEXTMAX
 10
-1.000000E+20
 20
-1.000000E+20
 30
-1.000000E+20
  9
$PLIMMIN
 10
0.0
 20
0.0
  9
$PLIMMAX
 10
12.0
 20
9.0
  9
$UNITMODE
 70
     0
  9
$VISRETAIN
 70
     0
  9
$PLINEGEN
 70
     1
  9
$PSLTSCALE
 70
     0
  9
$TREEDEPTH
 70
  3020
  9
$CMLSTYLE
  2
Standard
  9
$CMLJUST
 70
     0
  9
$CMLSCALE
 40
1.0
  9
$PROXYGRAPHICS
 70
     0
  9
$MEASUREMENT
 70
     0
  9
$CELWEIGHT
370
     0
  9
$ENDCAPS
280
     0
  9
$JOINSTYLE
280
     0
  9
$LWDISPLAY
290
     0
  9
$INSUNITS
 70
     1
  9
$HYPERLINKBASE
  1

  9
$STYLESHEET
  1

  9
$XEDIT
290
     1
  9
$CEPSNTYPE
380
     0
  9
$PSTYLEMODE
290
     1
  9
$FINGERPRINTGUID
  2

  9
$VERSIONGUID
  2

  9
$EXTNAMES
290
     1
  9
$PSVPSCALE
 40
0.0
  0
ENDSEC
  0
SECTION
  2
CLASSES
  0
CLASS
  1
LWPOLYLINE
  2
AcDbPolyline
  3
AutoCAD 2000
 90
        0
280
     0
281
     1
  0
CLASS
  1
IMAGE
  2
AcDbRasterImage
  3
ISM
 90
      127
280
     0
281
     1
  0
CLASS
  1
OLE2FRAME
  2
AcDbOle2Frame
  3
AutoCAD 2000
 90
        0
280
     0
281
     1
  0
CLASS
  1
HATCH
  2
AcDbHatch
  3
AutoCAD 2000
 90
        0
280
     0
281
     1
  0
CLASS
  1
DICTIONARYVAR
  2
AcDbDictionaryVar
  3
AutoCAD 2000
 90
        0
280
     0
281
     0
  0
CLASS
  1
RASTERVARIABLES
  2
AcDbRasterVariables
  3
ISM
 90
        0
280
     0
281
     0
  0
CLASS
  1
IMAGEDEF
  2
AcDbRasterImageDef
  3
ISM
 90
        0
280
     0
281
     0
  0
CLASS
  1
IMAGEDEF_REACTOR
  2
AcDbRasterImageDefReactor
  3
ISM
 90
        1
280
     0
281
     0
  0
CLASS
  1
IDBUFFER
  2
AcDbIdBuffer
  3
AutoCAD 2000
 90
        0
280
     0
281
     0
  0
CLASS
  1
SPATIAL_FILTER
  2
AcDbSpatialFilter
  3
AutoCAD 2000
 90
        0
280
     0
281
     0
  0
CLASS
  1
XRECORD
  2
AcDbXrecord
  3
AutoCAD 2000
 90
        0
280
     0
281
     0
  0
CLASS
  1
SORTENTSTABLE
  2
AcDbSortentsTable
  3
AutoCAD 2000
 90
        0
280
     0
281
     0
  0
CLASS
  1
LAYER_INDEX
  2
AcDbLayerIndex
  3
AutoCAD 2000
 90
        0
280
     0
281
     0
  0
CLASS
  1
SPATIAL_INDEX
  2
AcDbSpatialIndex
  3
AutoCAD 2000
 90
        0
280
     0
281
     0
  0
CLASS
  1
OBJECT_PTR
  2
CAseDLPNTableRecord
  3
"ASE-LPNTableRecord"
 90
        1
280
     0
281
     0
  0
CLASS
  1
LAYOUT
  2
AcDbLayout
  3
AutoCAD 2000
 90
        0
280
     0
281
     0
  0
CLASS
  1
PLOTSETTINGS
  2
AcDbPlotSettings
  3
AutoCAD 2000
 90
        0
280
     0
281
     0
  0
CLASS
  1
ACDBDICTIONARYWDFLT
  2
AcDbDictionaryWithDefault
  3
AutoCAD 2000
 90
        0
280
     0
281
     0
  0
CLASS
  1
ACDBPLACEHOLDER
  2
AcDbPlaceHolder
  3
AutoCAD 2000
 90
        0
280
     0
281
     0
  0
CLASS
  1
VBA_PROJECT
  2
AcDbVbaProject
  3
acadvba
 90
        0
280
     0
281
     0
  0
CLASS
  1
WIPEOUT
  2
AcDbWipeout
  3
WipeOut|AutoCAD Express Tool|expresstools@autodesk.com
 90
      127
280
     0
281
     1
  0
CLASS
  1
WIPEOUTVARIABLES
  2
AcDbWipeoutVariables
  3
WipeOut|AutoCAD Express Tool|expresstools@autodesk.com
 90
        0
280
     0
281
     0
  0
CLASS
  1
RTEXT
  2
RText
  3
RText|AutoCAD Express Tool|expresstools@autodesk.com
 90
        0
280
     0
281
     1
  0
CLASS
  1
ARCALIGNEDTEXT
  2
AcDbArcAlignedText
  3
ATEXT|AutoCAD Express Tool|expresstools@autodesk.com
 90
        0
280
     0
281
     1
  0
ENDSEC
  0
SECTION
  2
TABLES
  0
TABLE
  2
VPORT
  5
7
100
AcDbSymbolTable
 70
     1
  0
VPORT
  5
15
100
AcDbSymbolTableRecord
100
AcDbViewportTableRecord
  2
*ACTIVE
 70
     0
 10
0.0
 20
0.0
 11
1.0
 21
1.0
 12
6.591288
 22
4.579184
 13
0.0
 23
0.0
 14
1.0
 24
1.0
 15
0.0
 25
0.0
 16
0.0
 26
0.0
 36
1.0
 17
0.0
 27
0.0
 37
0.0
 40
9.158369
 41
0.688564
 42
50.0
 43
0.0
 44
0.0
 50
0.0
 51
0.0
 71
     0
 72
   100
 73
     1
 74
     1
 75
     0
 76
     0
 77
     0
 78
     0
281
     0
 65
     0
110
0.0
120
0.0
130
0.0
111
1.0
121
0.0
131
0.0
112
0.0
122
1.0
132
0.0
345
0
346
0
 79
     0
146
0.0
  0
ENDTAB
  0
TABLE
  2
LTYPE
  5
4
100
AcDbSymbolTable
 70
     7
  0
LTYPE
  5
11
100
AcDbSymbolTableRecord
100
AcDbLinetypeTableRecord
  2
ByBlock
 70
    64
  3

 72
    65
 73
     0
 40
0.0
  0
LTYPE
  5
12
100
AcDbSymbolTableRecord
100
AcDbLinetypeTableRecord
  2
ByLayer
 70
    64
  3

 72
    65
 73
     0
 40
0.0
  0
LTYPE
  5
13
100
AcDbSymbolTableRecord
100
AcDbLinetypeTableRecord
  2
Continuous
 70
    64
  3
Solid line
 72
    65
 73
     0
 40
0.0
  0
LTYPE
  5
24
100
AcDbSymbolTableRecord
100
AcDbLinetypeTableRecord
  2
CONTINUOUS2
 70
     0
  3
Solid line
 72
    65
 73
     0
 40
0.0
  0
LTYPE
  5
25
100
AcDbSymbolTableRecord
100
AcDbLinetypeTableRecord
  2
DASHED
 70
    64
  3
__ __ __ __ __ __ __ __ __ __ __ __ __ __ __ __
 72
    65
 73
     2
 40
0.5
 49
0.375
 74
     0
 49
-0.125
 74
     0
  0
LTYPE
  5
26
100
AcDbSymbolTableRecord
100
AcDbLinetypeTableRecord
  2
CENTER
 70
    64
  3
____ _ ____ _ ____ _ ____ _ ____ _ ____ _ ____ _
 72
    65
 73
     4
 40
1.0
 49
0.625
 74
     0
 49
-0.125
 74
     0
 49
0.125
 74
     0
 49
-0.125
 74
     0
  0
LTYPE
  5
27
100
AcDbSymbolTableRecord
100
AcDbLinetypeTableRecord
  2
PHANTOM
 70
    64
  3
___ _ _ ___ _ _ ___ _ _ ___ _ _ ___ _ _ ___ _ _ 
 72
    65
 73
     6
 40
1.0
 49
0.5
 74
     0
 49
-0.1
 74
     0
 49
0.1
 74
     0
 49
-0.1
 74
     0
 49
0.1
 74
     0
 49
-0.1
 74
     0
  0
ENDTAB
  0
TABLE
  2
LAYER
  5
2
100
AcDbSymbolTable
 70
     5
  0
LAYER
  5
14
100
AcDbSymbolTableRecord
100
AcDbLayerTableRecord
  2
0
 70
     0
 62
     7
  6
Continuous
290
     1
370
    -3
390
1D
  0
LAYER
  5
28
100
AcDbSymbolTableRecord
100
AcDbLayerTableRecord
  2
10188XRPL_A_DRD
 70
     0
 62
     1
  6
Continuous
290
     1
370
    -3
390
1D
  0
LAYER
  5
55
100
AcDbSymbolTableRecord
100
AcDbLayerTableRecord
  2
10188XRPL_A_SMT
 70
     0
 62
     1
  6
Continuous
290
     1
370
    -3
390
1D
  0
LAYER
  5
347
100
AcDbSymbolTableRecord
100
AcDbLayerTableRecord
  2
10188XRPL_A_SST
 70
     0
 62
     1
  6
Continuous
290
     1
370
    -3
390
1D
  0
LAYER
  5
35F
100
AcDbSymbolTableRecord
100
AcDbLayerTableRecord
  2
0
 70
     0
 62
     1
  6
Continuous
290
     1
370
    -3
390
1D
  0
ENDTAB
  0
TABLE
  2
STYLE
  5
3
100
AcDbSymbolTable
 70
     1
  0
STYLE
  5
17
100
AcDbSymbolTableRecord
100
AcDbTextStyleTableRecord
  2
Standard
 70
     0
 40
0.0
 41
1.0
 50
0.0
 71
     0
 42
0.0
  3
txt
  4

  0
ENDTAB
  0
TABLE
  2
VIEW
  5
5
100
AcDbSymbolTable
 70
     0
  0
ENDTAB
  0
TABLE
  2
UCS
  5
6
100
AcDbSymbolTable
 70
     0
  0
ENDTAB
  0
TABLE
  2
APPID
  5
8
100
AcDbSymbolTable
 70
     1
  0
APPID
  5
16
100
AcDbSymbolTableRecord
100
AcDbRegAppTableRecord
  2
ACAD
 70
     0
  0
ENDTAB
  0
TABLE
  2
DIMSTYLE
  5
9
100
AcDbSymbolTable
 70
     1
100
AcDbDimStyleTable
 71
     0
  0
DIMSTYLE
105
18
100
AcDbSymbolTableRecord
100
AcDbDimStyleTableRecord
  2
Standard
 70
     0
  3

  4

 40
1.0
 41
0.18
 42
0.0625
 43
0.38
 44
0.18
 45
0.0
 46
0.0
 47
0.0
 48
0.0
 71
     0
 72
     0
 73
     1
 74
     1
 75
     0
 76
     0
 77
     0
 78
     0
 79
     0
140
0.18
141
0.09
142
0.0
143
25.4
144
1.0
145
0.0
146
1.0
147
0.09
148
0.0
170
     0
171
     2
172
     0
173
     0
174
     0
175
     0
176
     0
177
     0
178
     0
179
     0
271
     4
272
     4
273
     2
274
     2
275
     0
276
     0
277
     2
278
    46
279
     0
280
     0
281
     0
282
     0
283
     1
284
     0
285
     0
286
     0
288
     0
289
     3
340
17
341
0
342
0
343
0
344
0
371
    -2
372
    -2
  0
ENDTAB
  0
TABLE
  2
BLOCK_RECORD
  5
1
100
AcDbSymbolTable
 70
     2
  0
BLOCK_RECORD
  5
A
100
AcDbSymbolTableRecord
100
AcDbBlockTableRecord
  2
*MODEL_SPACE
340
20
  0
BLOCK_RECORD
  5
B
100
AcDbSymbolTableRecord
100
AcDbBlockTableRecord
  2
*PAPER_SPACE
340
21
  0
BLOCK_RECORD
  5
38A
100
AcDbSymbolTableRecord
100
AcDbBlockTableRecord
  2
*D0
340
0
  0
BLOCK_RECORD
  5
395
100
AcDbSymbolTableRecord
100
AcDbBlockTableRecord
  2
*D1
340
0
  0
ENDTAB
  0
ENDSEC
  0
SECTION
  2
BLOCKS
  0
BLOCK
  5
D
100
AcDbEntity
  8
0
390
0
100
AcDbBlockBegin
  2
*MODEL_SPACE
 70
     0
 10
0.0
 20
0.0
 30
0.0
  3
*MODEL_SPACE
  1

  0
ENDBLK
  5
E
100
AcDbEntity
  8
0
390
0
100
AcDbBlockEnd
  0
BLOCK
  5
F
100
AcDbEntity
 67
     1
  8
0
390
0
100
AcDbBlockBegin
  2
*PAPER_SPACE
 70
     0
 10
0.0
 20
0.0
 30
0.0
  3
*PAPER_SPACE
  1

  0
ENDBLK
  5
10
100
AcDbEntity
 67
     1
  8
0
390
0
100
AcDbBlockEnd
  0
BLOCK
  5
38B
100
AcDbEntity
  8
0
390
0
  6
CONTINUOUS2
 62
     3
100
AcDbBlockBegin
  2
*D0
 70
     0
 10
0.0
 20
0.0
 30
0.0
  3
*D0
  1

  0
LINE
  5
38C
100
AcDbEntity
  8
0
390
0
  6
CONTINUOUS2
 62
     3
100
AcDbLine
 10
0.0
 20
2.624
 30
0.0
 11
0.0
 21
2.930194
 31
0.0
210
0.0
220
0.0
230
1.0
  0
LINE
  5
38D
100
AcDbEntity
  8
0
390
0
  6
CONTINUOUS2
 62
     3
100
AcDbLine
 10
4.95
 20
2.624
 30
0.0
 11
4.95
 21
2.930194
 31
0.0
210
0.0
220
0.0
230
1.0
  0
LINE
  5
38E
100
AcDbEntity
  8
0
390
0
  6
CONTINUOUS2
 62
     3
100
AcDbLine
 10
0.0
 20
2.805194
 30
0.0
 11
2.308134
 21
2.805194
 31
0.0
210
0.0
220
0.0
230
1.0
  0
LINE
  5
38F
100
AcDbEntity
  8
0
390
0
  6
CONTINUOUS2
 62
     3
100
AcDbLine
 10
4.95
 20
2.805194
 30
0.0
 11
2.641865
 21
2.805194
 31
0.0
210
0.0
220
0.0
230
1.0
  0
MTEXT
  5
390
100
AcDbEntity
  8
0
390
0
  6
CONTINUOUS2
 62
     3
100
AcDbMText
 10
2.475
 20
2.805194
 30
0.0
 40
0.1
 41
0.0
 71
     5
 72
     1
  1
{\H0.100000;4.950}
210
0.0
220
0.0
230
1.0
 73
     1
 44
1.0
  0
SOLID
  5
391
100
AcDbEntity
  8
0
390
0
  6
CONTINUOUS2
 62
     3
100
AcDbTrace
 10
0.25
 20
2.846844
 30
0.0
 11
0.25
 21
2.763544
 31
0.0
 12
0.0
 22
2.805194
 32
0.0
 13
0.0
 23
2.805194
 33
0.0
210
0.0
220
0.0
230
1.0
  0
SOLID
  5
392
100
AcDbEntity
  8
0
390
0
  6
CONTINUOUS2
 62
     3
100
AcDbTrace
 10
4.7
 20
2.763544
 30
0.0
 11
4.7
 21
2.846844
 31
0.0
 12
4.95
 22
2.805194
 32
0.0
 13
4.95
 23
2.805194
 33
0.0
210
0.0
220
0.0
230
1.0
  0
ENDBLK
  5
393
100
AcDbEntity
  8
0
390
0
  6
CONTINUOUS2
 62
     3
100
AcDbBlockEnd
  0
BLOCK
  5
396
100
AcDbEntity
  8
0
390
0
  6
CONTINUOUS2
 62
     3
100
AcDbBlockBegin
  2
*D1
 70
     0
 10
0.0
 20
0.0
 30
0.0
  3
*D1
  1

  0
LINE
  5
397
100
AcDbEntity
  8
0
390
0
  6
CONTINUOUS2
 62
     3
100
AcDbLine
 10
5.2
 20
-0.001
 30
0.0
 11
5.558273
 21
-0.001
 31
0.0
210
0.0
220
0.0
230
1.0
  0
LINE
  5
398
100
AcDbEntity
  8
0
390
0
  6
CONTINUOUS2
 62
     3
100
AcDbLine
 10
5.2
 20
2.374
 30
0.0
 11
5.558273
 21
2.374
 31
0.0
210
0.0
220
0.0
230
1.0
  0
LINE
  5
399
100
AcDbEntity
  8
0
390
0
  6
CONTINUOUS2
 62
     3
100
AcDbLine
 10
5.433273
 20
-0.001
 30
0.0
 11
5.433273
 21
1.082062
 31
0.0
210
0.0
220
0.0
230
1.0
  0
LINE
  5
39A
100
AcDbEntity
  8
0
390
0
  6
CONTINUOUS2
 62
     3
100
AcDbLine
 10
5.433273
 20
2.374
 30
0.0
 11
5.433273
 21
1.290938
 31
0.0
210
0.0
220
0.0
230
1.0
  0
MTEXT
  5
39B
100
AcDbEntity
  8
0
390
0
  6
CONTINUOUS2
 62
     3
100
AcDbMText
 10
5.433273
 20
1.1865
 30
0.0
 40
0.1
 41
0.0
 71
     5
 72
     1
  1
{\H0.100000;2.375}
210
0.0
220
0.0
230
1.0
 73
     1
 44
1.0
  0
SOLID
  5
39C
100
AcDbEntity
  8
0
390
0
  6
CONTINUOUS2
 62
     3
100
AcDbTrace
 10
5.391623
 20
0.249
 30
0.0
 11
5.474923
 21
0.249
 31
0.0
 12
5.433273
 22
-0.001
 32
0.0
 13
5.433273
 23
-0.001
 33
0.0
210
0.0
220
0.0
230
1.0
  0
SOLID
  5
39D
100
AcDbEntity
  8
0
390
0
  6
CONTINUOUS2
 62
     3
100
AcDbTrace
 10
5.474923
 20
2.124
 30
0.0
 11
5.391623
 21
2.124
 31
0.0
 12
5.433273
 22
2.374
 32
0.0
 13
5.433273
 23
2.374
 33
0.0
210
0.0
220
0.0
230
1.0
  0
ENDBLK
  5
39E
100
AcDbEntity
  8
0
390
0
  6
CONTINUOUS2
 62
     3
100
AcDbBlockEnd
  0
ENDSEC
  0
SECTION
  2
ENTITIES
  0
LINE
  5
29
100
AcDbEntity
  8
10188XRPL_A_DRD
390
0
  6
CONTINUOUS2
 62
     6
100
AcDbLine
 10
1.943
 20
0.1495
 30
0.0
 11
1.503
 21
0.1495
 31
0.0
  0
LINE
  5
2A
100
AcDbEntity
  8
10188XRPL_A_DRD
390
0
  6
CONTINUOUS2
 62
     6
100
AcDbLine
 10
1.503
 20
0.1495
 30
0.0
 11
1.503
 21
1.8745
 31
0.0
  0
LINE
  5
2B
100
AcDbEntity
  8
10188XRPL_A_DRD
390
0
  6
CONTINUOUS2
 62
     6
100
AcDbLine
 10
1.503
 20
1.8745
 30
0.0
 11
1.943
 21
1.8745
 31
0.0
  0
LINE
  5
2C
100
AcDbEntity
  8
10188XRPL_A_DRD
390
0
  6
CONTINUOUS2
 62
     6
100
AcDbLine
 10
1.943
 20
1.8745
 30
0.0
 11
1.943
 21
0.1495
 31
0.0
  0
LINE
  5
2D
100
AcDbEntity
  8
10188XRPL_A_DRD
390
0
  6
CONTINUOUS2
 62
     6
100
AcDbLine
 10
0.0
 20
2.374
 30
0.0
 11
4.95
 21
2.374
 31
0.0
  0
LINE
  5
2E
100
AcDbEntity
  8
10188XRPL_A_DRD
390
0
  6
CONTINUOUS2
 62
     6
100
AcDbLine
 10
4.95
 20
2.374
 30
0.0
 11
4.95
 21
-0.001
 31
0.0
  0
LINE
  5
2F
100
AcDbEntity
  8
10188XRPL_A_DRD
390
0
  6
CONTINUOUS2
 62
     6
100
AcDbLine
 10
4.95
 20
-0.001
 30
0.0
 11
0.0
 21
-0.001
 31
0.0
  0
LINE
  5
30
100
AcDbEntity
  8
10188XRPL_A_DRD
390
0
  6
CONTINUOUS2
 62
     6
100
AcDbLine
 10
0.0
 20
-0.001
 30
0.0
 11
0.0
 21
2.374
 31
0.0
  0
LINE
  5
31
100
AcDbEntity
  8
10188XRPL_A_DRD
390
0
  6
CONTINUOUS2
 62
     6
100
AcDbLine
 10
3.05
 20
1.95
 30
0.0
 11
3.05
 21
1.9
 31
0.0
  0
LINE
  5
32
100
AcDbEntity
  8
10188XRPL_A_DRD
390
0
  6
CONTINUOUS2
 62
     6
100
AcDbLine
 10
3.1
 20
1.95
 30
0.0
 11
3.05
 21
1.95
 31
0.0
  0
LINE
  5
33
100
AcDbEntity
  8
10188XRPL_A_DRD
390
0
  6
CONTINUOUS2
 62
     6
100
AcDbLine
 10
3.1
 20
1.85
 30
0.0
 11
3.1
 21
1.95
 31
0.0
  0
LINE
  5
34
100
AcDbEntity
  8
10188XRPL_A_DRD
390
0
  6
CONTINUOUS2
 62
     6
100
AcDbLine
 10
3.15
 20
1.85
 30
0.0
 11
3.1
 21
1.85
 31
0.0
  0
LINE
  5
35
100
AcDbEntity
  8
10188XRPL_A_DRD
390
0
  6
CONTINUOUS2
 62
     6
100
AcDbLine
 10
3.15
 20
1.9
 30
0.0
 11
3.15
 21
1.85
 31
0.0
  0
LINE
  5
36
100
AcDbEntity
  8
10188XRPL_A_DRD
390
0
  6
CONTINUOUS2
 62
     6
100
AcDbLine
 10
3.05
 20
1.9
 30
0.0
 11
3.15
 21
1.9
 31
0.0
  0
LINE
  5
37
100
AcDbEntity
  8
10188XRPL_A_DRD
390
0
  6
CONTINUOUS2
 62
     6
100
AcDbLine
 10
2.365
 20
0.265
 30
0.0
 11
2.365
 21
0.215
 31
0.0
  0
LINE
  5
38
100
AcDbEntity
  8
10188XRPL_A_DRD
390
0
  6
CONTINUOUS2
 62
     6
100
AcDbLine
 10
2.415
 20
0.265
 30
0.0
 11
2.365
 21
0.265
 31
0.0
  0
LINE
  5
39
100
AcDbEntity
  8
10188XRPL_A_DRD
390
0
  6
CONTINUOUS2
 62
     6
100
AcDbLine
 10
2.415
 20
0.165
 30
0.0
 11
2.415
 21
0.265
 31
0.0
  0
LINE
  5
3A
100
AcDbEntity
  8
10188XRPL_A_DRD
390
0
  6
CONTINUOUS2
 62
     6
100
AcDbLine
 10
2.465
 20
0.165
 30
0.0
 11
2.415
 21
0.165
 31
0.0
  0
LINE
  5
3B
100
AcDbEntity
  8
10188XRPL_A_DRD
390
0
  6
CONTINUOUS2
 62
     6
100
AcDbLine
 10
2.465
 20
0.215
 30
0.0
 11
2.465
 21
0.165
 31
0.0
  0
LINE
  5
3C
100
AcDbEntity
  8
10188XRPL_A_DRD
390
0
  6
CONTINUOUS2
 62
     6
100
AcDbLine
 10
2.365
 20
0.215
 30
0.0
 11
2.465
 21
0.215
 31
0.0
  0
LINE
  5
3D
100
AcDbEntity
  8
10188XRPL_A_DRD
390
0
  6
CONTINUOUS2
 62
     6
100
AcDbLine
 10
4.4
 20
0.265
 30
0.0
 11
4.4
 21
0.215
 31
0.0
  0
LINE
  5
3E
100
AcDbEntity
  8
10188XRPL_A_DRD
390
0
  6
CONTINUOUS2
 62
     6
100
AcDbLine
 10
4.45
 20
0.265
 30
0.0
 11
4.4
 21
0.265
 31
0.0
  0
LINE
  5
3F
100
AcDbEntity
  8
10188XRPL_A_DRD
390
0
  6
CONTINUOUS2
 62
     6
100
AcDbLine
 10
4.45
 20
0.165
 30
0.0
 11
4.45
 21
0.265
 31
0.0
  0
LINE
  5
40
100
AcDbEntity
  8
10188XRPL_A_DRD
390
0
  6
CONTINUOUS2
 62
     6
100
AcDbLine
 10
4.5
 20
0.165
 30
0.0
 11
4.45
 21
0.165
 31
0.0
  0
LINE
  5
41
100
AcDbEntity
  8
10188XRPL_A_DRD
390
0
  6
CONTINUOUS2
 62
     6
100
AcDbLine
 10
4.5
 20
0.215
 30
0.0
 11
4.5
 21
0.165
 31
0.0
  0
LINE
  5
42
100
AcDbEntity
  8
10188XRPL_A_DRD
390
0
  6
CONTINUOUS2
 62
     6
100
AcDbLine
 10
4.4
 20
0.215
 30
0.0
 11
4.5
 21
0.215
 31
0.0
  0
LINE
  5
43
100
AcDbEntity
  8
10188XRPL_A_DRD
390
0
  6
CONTINUOUS2
 62
     6
100
AcDbLine
 10
2.135
 20
1.95
 30
0.0
 11
2.135
 21
1.9
 31
0.0
  0
LINE
  5
44
100
AcDbEntity
  8
10188XRPL_A_DRD
390
0
  6
CONTINUOUS2
 62
     6
100
AcDbLine
 10
2.185
 20
1.95
 30
0.0
 11
2.135
 21
1.95
 31
0.0
  0
LINE
  5
45
100
AcDbEntity
  8
10188XRPL_A_DRD
390
0
  6
CONTINUOUS2
 62
     6
100
AcDbLine
 10
2.185
 20
1.85
 30
0.0
 11
2.185
 21
1.95
 31
0.0
  0
LINE
  5
46
100
AcDbEntity
  8
10188XRPL_A_DRD
390
0
  6
CONTINUOUS2
 62
     6
100
AcDbLine
 10
2.235
 20
1.85
 30
0.0
 11
2.185
 21
1.85
 31
0.0
  0
LINE
  5
47
100
AcDbEntity
  8
10188XRPL_A_DRD
390
0
  6
CONTINUOUS2
 62
     6
100
AcDbLine
 10
2.235
 20
1.9
 30
0.0
 11
2.235
 21
1.85
 31
0.0
  0
LINE
  5
48
100
AcDbEntity
  8
10188XRPL_A_DRD
390
0
  6
CONTINUOUS2
 62
     6
100
AcDbLine
 10
2.135
 20
1.9
 30
0.0
 11
2.235
 21
1.9
 31
0.0
  0
LINE
  5
49
100
AcDbEntity
  8
10188XRPL_A_DRD
390
0
  6
CONTINUOUS2
 62
     6
100
AcDbLine
 10
1.2
 20
0.265
 30
0.0
 11
1.2
 21
0.215
 31
0.0
  0
LINE
  5
4A
100
AcDbEntity
  8
10188XRPL_A_DRD
390
0
  6
CONTINUOUS2
 62
     6
100
AcDbLine
 10
1.25
 20
0.265
 30
0.0
 11
1.2
 21
0.265
 31
0.0
  0
LINE
  5
4B
100
AcDbEntity
  8
10188XRPL_A_DRD
390
0
  6
CONTINUOUS2
 62
     6
100
AcDbLine
 10
1.25
 20
0.165
 30
0.0
 11
1.25
 21
0.265
 31
0.0
  0
LINE
  5
4C
100
AcDbEntity
  8
10188XRPL_A_DRD
390
0
  6
CONTINUOUS2
 62
     6
100
AcDbLine
 10
1.3
 20
0.165
 30
0.0
 11
1.25
 21
0.165
 31
0.0
  0
LINE
  5
4D
100
AcDbEntity
  8
10188XRPL_A_DRD
390
0
  6
CONTINUOUS2
 62
     6
100
AcDbLine
 10
1.3
 20
0.215
 30
0.0
 11
1.3
 21
0.165
 31
0.0
  0
LINE
  5
4E
100
AcDbEntity
  8
10188XRPL_A_DRD
390
0
  6
CONTINUOUS2
 62
     6
100
AcDbLine
 10
1.2
 20
0.215
 30
0.0
 11
1.3
 21
0.215
 31
0.0
  0
LINE
  5
4F
100
AcDbEntity
  8
10188XRPL_A_DRD
390
0
  6
CONTINUOUS2
 62
     6
100
AcDbLine
 10
1.2
 20
1.813
 30
0.0
 11
1.2
 21
1.763
 31
0.0
  0
LINE
  5
50
100
AcDbEntity
  8
10188XRPL_A_DRD
390
0
  6
CONTINUOUS2
 62
     6
100
AcDbLine
 10
1.25
 20
1.813
 30
0.0
 11
1.2
 21
1.813
 31
0.0
  0
LINE
  5
51
100
AcDbEntity
  8
10188XRPL_A_DRD
390
0
  6
CONTINUOUS2
 62
     6
100
AcDbLine
 10
1.25
 20
1.713
 30
0.0
 11
1.25
 21
1.813
 31
0.0
  0
LINE
  5
52
100
AcDbEntity
  8
10188XRPL_A_DRD
390
0
  6
CONTINUOUS2
 62
     6
100
AcDbLine
 10
1.3
 20
1.713
 30
0.0
 11
1.25
 21
1.713
 31
0.0
  0
LINE
  5
53
100
AcDbEntity
  8
10188XRPL_A_DRD
390
0
  6
CONTINUOUS2
 62
     6
100
AcDbLine
 10
1.3
 20
1.763
 30
0.0
 11
1.3
 21
1.713
 31
0.0
  0
LINE
  5
54
100
AcDbEntity
  8
10188XRPL_A_DRD
390
0
  6
CONTINUOUS2
 62
     6
100
AcDbLine
 10
1.2
 20
1.763
 30
0.0
 11
1.3
 21
1.763
 31
0.0
  0
LINE
  5
56
100
AcDbEntity
  8
10188XRPL_A_SMT
390
0
  6
CONTINUOUS2
 62
     1
100
AcDbLine
 10
0.142
 20
1.147
 30
0.0
 11
0.015
 21
1.147
 31
0.0
  0
LINE
  5
57
100
AcDbEntity
  8
10188XRPL_A_SMT
390
0
  6
CONTINUOUS2
 62
     1
100
AcDbLine
 10
0.015
 20
1.147
 30
0.0
 11
0.015
 21
0.997
 31
0.0
  0
LINE
  5
58
100
AcDbEntity
  8
10188XRPL_A_SMT
390
0
  6
CONTINUOUS2
 62
     1
100
AcDbLine
 10
0.142
 20
0.997
 30
0.0
 11
0.015
 21
0.997
 31
0.0
  0
LINE
  5
59
100
AcDbEntity
  8
10188XRPL_A_SMT
390
0
  6
CONTINUOUS2
 62
     1
100
AcDbLine
 10
0.142
 20
1.147
 30
0.0
 11
0.142
 21
0.997
 31
0.0
  0
LINE
  5
5A
100
AcDbEntity
  8
10188XRPL_A_SMT
390
0
  6
CONTINUOUS2
 62
     1
100
AcDbLine
 10
0.1405
 20
1.147
 30
0.0
 11
0.1405
 21
0.997
 31
0.0
  0
LINE
  5
5B
100
AcDbEntity
  8
10188XRPL_A_SMT
390
0
  6
CONTINUOUS2
 62
     1
100
AcDbLine
 10
0.1396
 20
1.147
 30
0.0
 11
0.1396
 21
0.997
 31
0.0
  0
LINE
  5
5C
100
AcDbEntity
  8
10188XRPL_A_SMT
390
0
  6
CONTINUOUS2
 62
     1
100
AcDbLine
 10
0.1387
 20
1.147
 30
0.0
 11
0.1387
 21
0.997
 31
0.0
  0
LINE
  5
5D
100
AcDbEntity
  8
10188XRPL_A_SMT
390
0
  6
CONTINUOUS2
 62
     1
100
AcDbLine
 10
0.1378
 20
1.147
 30
0.0
 11
0.1378
 21
0.997
 31
0.0
  0
LINE
  5
5E
100
AcDbEntity
  8
10188XRPL_A_SMT
390
0
  6
CONTINUOUS2
 62
     1
100
AcDbLine
 10
0.1369
 20
1.147
 30
0.0
 11
0.1369
 21
0.997
 31
0.0
  0
LINE
  5
5F
100
AcDbEntity
  8
10188XRPL_A_SMT
390
0
  6
CONTINUOUS2
 62
     1
100
AcDbLine
 10
0.136
 20
1.147
 30
0.0
 11
0.136
 21
0.997
 31
0.0
  0
LINE
  5
60
100
AcDbEntity
  8
10188XRPL_A_SMT
390
0
  6
CONTINUOUS2
 62
     1
100
AcDbLine
 10
0.1351
 20
1.147
 30
0.0
 11
0.1351
 21
0.997
 31
0.0
  0
LINE
  5
61
100
AcDbEntity
  8
10188XRPL_A_SMT
390
0
  6
CONTINUOUS2
 62
     1
100
AcDbLine
 10
0.1342
 20
1.147
 30
0.0
 11
0.1342
 21
0.997
 31
0.0
  0
LINE
  5
62
100
AcDbEntity
  8
10188XRPL_A_SMT
390
0
  6
CONTINUOUS2
 62
     1
100
AcDbLine
 10
0.1333
 20
1.147
 30
0.0
 11
0.1333
 21
0.997
 31
0.0
  0
LINE
  5
63
100
AcDbEntity
  8
10188XRPL_A_SMT
390
0
  6
CONTINUOUS2
 62
     1
100
AcDbLine
 10
0.1324
 20
1.147
 30
0.0
 11
0.1324
 21
0.997
 31
0.0
  0
LINE
  5
64
100
AcDbEntity
  8
10188XRPL_A_SMT
390
0
  6
CONTINUOUS2
 62
     1
100
AcDbLine
 10
0.1315
 20
1.147
 30
0.0
 11
0.1315
 21
0.997
 31
0.0
  0
LINE
  5
65
100
AcDbEntity
  8
10188XRPL_A_SMT
390
0
  6
CONTINUOUS2
 62
     1
100
AcDbLine
 10
0.1306
 20
1.147
 30
0.0
 11
0.1306
 21
0.997
 31
0.0
  0
LINE
  5
66
100
AcDbEntity
  8
10188XRPL_A_SMT
390
0
  6
CONTINUOUS2
 62
     1
100
AcDbLine
 10
0.1297
 20
1.147
 30
0.0
 11
0.1297
 21
0.997
 31
0.0
  0
LINE
  5
67
100
AcDbEntity
  8
10188XRPL_A_SMT
390
0
  6
CONTINUOUS2
 62
     1
100
AcDbLine
 10
0.1288
 20
1.147
 30
0.0
 11
0.1288
 21
0.997
 31
0.0
  0
LINE
  5
68
100
AcDbEntity
  8
10188XRPL_A_SMT
390
0
  6
CONTINUOUS2
 62
     1
100
AcDbLine
 10
0.1279
 20
1.147
 30
0.0
 11
0.1279
 21
0.997
 31
0.0
  0
LINE
  5
69
100
AcDbEntity
  8
10188XRPL_A_SMT
390
0
  6
CONTINUOUS2
 62
     1
100
AcDbLine
 10
0.127
 20
1.147
 30
0.0
 11
0.127
 21
0.997
 31
0.0
  0
LINE
  5
6A
100
AcDbEntity
  8
10188XRPL_A_SMT
390
0
  6
CONTINUOUS2
 62
     1
100
AcDbLine
 10
0.1261
 20
1.147
 30
0.0
 11
0.1261
 21
0.997
 31
0.0
  0
LINE
  5
6B
100
AcDbEntity
  8
10188XRPL_A_SMT
390
0
  6
CONTINUOUS2
 62
     1
100
AcDbLine
 10
0.1252
 20
1.147
 30
0.0
 11
0.1252
 21
0.997
 31
0.0
  0
LINE
  5
6C
100
AcDbEntity
  8
10188XRPL_A_SMT
390
0
  6
CONTINUOUS2
 62
     1
100
AcDbLine
 10
0.1243
 20
1.147
 30
0.0
 11
0.1243
 21
0.997
 31
0.0
  0
LINE
  5
6D
100
AcDbEntity
  8
10188XRPL_A_SMT
390
0
  6
CONTINUOUS2
 62
     1
100
AcDbLine
 10
0.1234
 20
1.147
 30
0.0
 11
0.1234
 21
0.997
 31
0.0
  0
LINE
  5
6E
100
AcDbEntity
  8
10188XRPL_A_SMT
390
0
  6
CONTINUOUS2
 62
     1
100
AcDbLine
 10
0.1225
 20
1.147
 30
0.0
 11
0.1225
 21
0.997
 31
0.0
  0
LINE
  5
6F
100
AcDbEntity
  8
10188XRPL_A_SMT
390
0
  6
CONTINUOUS2
 62
     1
100
AcDbLine
 10
0.1216
 20
1.147
 30
0.0
 11
0.1216
 21
0.997
 31
0.0
  0
LINE
  5
70
100
AcDbEntity
  8
10188XRPL_A_SMT
390
0
  6
CONTINUOUS2
 62
     1
100
AcDbLine
 10
0.1207
 20
1.147
 30
0.0
 11
0.1207
 21
0.997
 31
0.0
  0
LINE
  5
71
100
AcDbEntity
  8
10188XRPL_A_SMT
390
0
  6
CONTINUOUS2
 62
     1
100
AcDbLine
 10
0.1198
 20
1.147
 30
0.0
 11
0.1198
 21
0.997
 31
0.0
  0
LINE
  5
72
100
AcDbEntity
  8
10188XRPL_A_SMT
390
0
  6
CONTINUOUS2
 62
     1
100
AcDbLine
 10
0.1189
 20
1.147
 30
0.0
 11
0.1189
 21
0.997
 31
0.0
  0
LINE
  5
73
100
AcDbEntity
  8
10188XRPL_A_SMT
390
0
  6
CONTINUOUS2
 62
     1
100
AcDbLine
 10
0.118
 20
1.147
 30
0.0
 11
0.118
 21
0.997
 31
0.0
  0
LINE
  5
74
100
AcDbEntity
  8
10188XRPL_A_SMT
390
0
  6
CONTINUOUS2
 62
     1
100
AcDbLine
 10
0.1171
 20
1.147
 30
0.0
 11
0.1171
 21
0.997
 31
0.0
  0
LINE
  5
75
100
AcDbEntity
  8
10188XRPL_A_SMT
390
0
  6
CONTINUOUS2
 62
     1
100
AcDbLine
 10
0.1162
 20
1.147
 30
0.0
 11
0.1162
 21
0.997
 31
0.0
  0
LINE
  5
76
100
AcDbEntity
  8
10188XRPL_A_SMT
390
0
  6
CONTINUOUS2
 62
     1
100
AcDbLine
 10
0.1153
 20
1.147
 30
0.0
 11
0.1153
 21
0.997
 31
0.0
  0
LINE
  5
77
100
AcDbEntity
  8
10188XRPL_A_SMT
390
0
  6
CONTINUOUS2
 62
     1
100
AcDbLine
 10
0.1144
 20
1.147
 30
0.0
 11
0.1144
 21
0.997
 31
0.0
  0
LINE
  5
78
100
AcDbEntity
  8
10188XRPL_A_SMT
390
0
  6
CONTINUOUS2
 62
     1
100
AcDbLine
 10
0.1135
 20
1.147
 30
0.0
 11
0.1135
 21
0.997
 31
0.0
  0
LINE
  5
79
100
AcDbEntity
  8
10188XRPL_A_SMT
390
0
  6
CONTINUOUS2
 62
     1
100
AcDbLine
 10
0.1126
 20
1.147
 30
0.0
 11
0.1126
 21
0.997
 31
0.0
  0
LINE
  5
7A
100
AcDbEntity
  8
10188XRPL_A_SMT
390
0
  6
CONTINUOUS2
 62
     1
100
AcDbLine
 10
0.1117
 20
1.147
 30
0.0
 11
0.1117
 21
0.997
 31
0.0
  0
LINE
  5
7B
100
AcDbEntity
  8
10188XRPL_A_SMT
390
0
  6
CONTINUOUS2
 62
     1
100
AcDbLine
 10
0.1108
 20
1.147
 30
0.0
 11
0.1108
 21
0.997
 31
0.0
  0
LINE
  5
7C
100
AcDbEntity
  8
10188XRPL_A_SMT
390
0
  6
CONTINUOUS2
 62
     1
100
AcDbLine
 10
0.1099
 20
1.147
 30
0.0
 11
0.1099
 21
0.997
 31
0.0
  0
LINE
  5
7D
100
AcDbEntity
  8
10188XRPL_A_SMT
390
0
  6
CONTINUOUS2
 62
     1
100
AcDbLine
 10
0.109
 20
1.147
 30
0.0
 11
0.109
 21
0.997
 31
0.0
  0
LINE
  5
7E
100
AcDbEntity
  8
10188XRPL_A_SMT
390
0
  6
CONTINUOUS2
 62
     1
100
AcDbLine
 10
0.1081
 20
1.147
 30
0.0
 11
0.1081
 21
0.997
 31
0.0
  0
LINE
  5
7F
100
AcDbEntity
  8
10188XRPL_A_SMT
390
0
  6
CONTINUOUS2
 62
     1
100
AcDbLine
 10
0.1072
 20
1.147
 30
0.0
 11
0.1072
 21
0.997
 31
0.0
  0
LINE
  5
80
100
AcDbEntity
  8
10188XRPL_A_SMT
390
0
  6
CONTINUOUS2
 62
     1
100
AcDbLine
 10
0.1063
 20
1.147
 30
0.0
 11
0.1063
 21
0.997
 31
0.0
  0
LINE
  5
81
100
AcDbEntity
  8
10188XRPL_A_SMT
390
0
  6
CONTINUOUS2
 62
     1
100
AcDbLine
 10
0.1054
 20
1.147
 30
0.0
 11
0.1054
 21
0.997
 31
0.0
  0
LINE
  5
82
100
AcDbEntity
  8
10188XRPL_A_SMT
390
0
  6
CONTINUOUS2
 62
     1
100
AcDbLine
 10
0.1045
 20
1.147
 30
0.0
 11
0.1045
 21
0.997
 31
0.0
  0
LINE
  5
83
100
AcDbEntity
  8
10188XRPL_A_SMT
390
0
  6
CONTINUOUS2
 62
     1
100
AcDbLine
 10
0.1036
 20
1.147
 30
0.0
 11
0.1036
 21
0.997
 31
0.0
  0
LINE
  5
84
100
AcDbEntity
  8
10188XRPL_A_SMT
390
0
  6
CONTINUOUS2
 62
     1
100
AcDbLine
 10
0.1027
 20
1.147
 30
0.0
 11
0.1027
 21
0.997
 31
0.0
  0
LINE
  5
85
100
AcDbEntity
  8
10188XRPL_A_SMT
390
0
  6
CONTINUOUS2
 62
     1
100
AcDbLine
 10
0.1018
 20
1.147
 30
0.0
 11
0.1018
 21
0.997
 31
0.0
  0
LINE
  5
86
100
AcDbEntity
  8
10188XRPL_A_SMT
390
0
  6
CONTINUOUS2
 62
     1
100
AcDbLine
 10
0.1009
 20
1.147
 30
0.0
 11
0.1009
 21
0.997
 31
0.0
  0
LINE
  5
87
100
AcDbEntity
  8
10188XRPL_A_SMT
390
0
  6
CONTINUOUS2
 62
     1
100
AcDbLine
 10
0.1
 20
1.147
 30
0.0
 11
0.1
 21
0.997
 31
0.0
  0
LINE
  5
88
100
AcDbEntity
  8
10188XRPL_A_SMT
390
0
  6
CONTINUOUS2
 62
     1
100
AcDbLine
 10
0.0991
 20
1.147
 30
0.0
 11
0.0991
 21
0.997
 31
0.0
  0
LINE
  5
89
100
AcDbEntity
  8
10188XRPL_A_SMT
390
0
  6
CONTINUOUS2
 62
     1
100
AcDbLine
 10
0.0982
 20
1.147
 30
0.0
 11
0.0982
 21
0.997
 31
0.0
  0
LINE
  5
8A
100
AcDbEntity
  8
10188XRPL_A_SMT
390
0
  6
CONTINUOUS2
 62
     1
100
AcDbLine
 10
0.0973
 20
1.147
 30
0.0
 11
0.0973
 21
0.997
 31
0.0
  0
LINE
  5
8B
100
AcDbEntity
  8
10188XRPL_A_SMT
390
0
  6
CONTINUOUS2
 62
     1
100
AcDbLine
 10
0.0964
 20
1.147
 30
0.0
 11
0.0964
 21
0.997
 31
0.0
  0
LINE
  5
8C
100
AcDbEntity
  8
10188XRPL_A_SMT
390
0
  6
CONTINUOUS2
 62
     1
100
AcDbLine
 10
0.0955
 20
1.147
 30
0.0
 11
0.0955
 21
0.997
 31
0.0
  0
LINE
  5
8D
100
AcDbEntity
  8
10188XRPL_A_SMT
390
0
  6
CONTINUOUS2
 62
     1
100
AcDbLine
 10
0.0946
 20
1.147
 30
0.0
 11
0.0946
 21
0.997
 31
0.0
  0
LINE
  5
8E
100
AcDbEntity
  8
10188XRPL_A_SMT
390
0
  6
CONTINUOUS2
 62
     1
100
AcDbLine
 10
0.0937
 20
1.147
 30
0.0
 11
0.0937
 21
0.997
 31
0.0
  0
LINE
  5
8F
100
AcDbEntity
  8
10188XRPL_A_SMT
390
0
  6
CONTINUOUS2
 62
     1
100
AcDbLine
 10
0.0928
 20
1.147
 30
0.0
 11
0.0928
 21
0.997
 31
0.0
  0
LINE
  5
90
100
AcDbEntity
  8
10188XRPL_A_SMT
390
0
  6
CONTINUOUS2
 62
     1
100
AcDbLine
 10
0.0919
 20
1.147
 30
0.0
 11
0.0919
 21
0.997
 31
0.0
  0
LINE
  5
91
100
AcDbEntity
  8
10188XRPL_A_SMT
390
0
  6
CONTINUOUS2
 62
     1
100
AcDbLine
 10
0.091
 20
1.147
 30
0.0
 11
0.091
 21
0.997
 31
0.0
  0
LINE
  5
92
100
AcDbEntity
  8
10188XRPL_A_SMT
390
0
  6
CONTINUOUS2
 62
     1
100
AcDbLine
 10
0.0901
 20
1.147
 30
0.0
 11
0.0901
 21
0.997
 31
0.0
  0
LINE
  5
93
100
AcDbEntity
  8
10188XRPL_A_SMT
390
0
  6
CONTINUOUS2
 62
     1
100
AcDbLine
 10
0.0892
 20
1.147
 30
0.0
 11
0.0892
 21
0.997
 31
0.0
  0
LINE
  5
94
100
AcDbEntity
  8
10188XRPL_A_SMT
390
0
  6
CONTINUOUS2
 62
     1
100
AcDbLine
 10
0.0883
 20
1.147
 30
0.0
 11
0.0883
 21
0.997
 31
0.0
  0
LINE
  5
95
100
AcDbEntity
  8
10188XRPL_A_SMT
390
0
  6
CONTINUOUS2
 62
     1
100
AcDbLine
 10
0.0874
 20
1.147
 30
0.0
 11
0.0874
 21
0.997
 31
0.0
  0
LINE
  5
96
100
AcDbEntity
  8
10188XRPL_A_SMT
390
0
  6
CONTINUOUS2
 62
     1
100
AcDbLine
 10
0.0865
 20
1.147
 30
0.0
 11
0.0865
 21
0.997
 31
0.0
  0
LINE
  5
97
100
AcDbEntity
  8
10188XRPL_A_SMT
390
0
  6
CONTINUOUS2
 62
     1
100
AcDbLine
 10
0.0856
 20
1.147
 30
0.0
 11
0.0856
 21
0.997
 31
0.0
  0
LINE
  5
98
100
AcDbEntity
  8
10188XRPL_A_SMT
390
0
  6
CONTINUOUS2
 62
     1
100
AcDbLine
 10
0.0847
 20
1.147
 30
0.0
 11
0.0847
 21
0.997
 31
0.0
  0
LINE
  5
99
100
AcDbEntity
  8
10188XRPL_A_SMT
390
0
  6
CONTINUOUS2
 62
     1
100
AcDbLine
 10
0.0838
 20
1.147
 30
0.0
 11
0.0838
 21
0.997
 31
0.0
  0
LINE
  5
9A
100
AcDbEntity
  8
10188XRPL_A_SMT
390
0
  6
CONTINUOUS2
 62
     1
100
AcDbLine
 10
0.0829
 20
1.147
 30
0.0
 11
0.0829
 21
0.997
 31
0.0
  0
LINE
  5
9B
100
AcDbEntity
  8
10188XRPL_A_SMT
390
0
  6
CONTINUOUS2
 62
     1
100
AcDbLine
 10
0.082
 20
1.147
 30
0.0
 11
0.082
 21
0.997
 31
0.0
  0
LINE
  5
9C
100
AcDbEntity
  8
10188XRPL_A_SMT
390
0
  6
CONTINUOUS2
 62
     1
100
AcDbLine
 10
0.0811
 20
1.147
 30
0.0
 11
0.0811
 21
0.997
 31
0.0
  0
LINE
  5
9D
100
AcDbEntity
  8
10188XRPL_A_SMT
390
0
  6
CONTINUOUS2
 62
     1
100
AcDbLine
 10
0.0802
 20
1.147
 30
0.0
 11
0.0802
 21
0.997
 31
0.0
  0
LINE
  5
9E
100
AcDbEntity
  8
10188XRPL_A_SMT
390
0
  6
CONTINUOUS2
 62
     1
100
AcDbLine
 10
0.0793
 20
1.147
 30
0.0
 11
0.0793
 21
0.997
 31
0.0
  0
LINE
  5
9F
100
AcDbEntity
  8
10188XRPL_A_SMT
390
0
  6
CONTINUOUS2
 62
     1
100
AcDbLine
 10
0.0784
 20
1.147
 30
0.0
 11
0.0784
 21
0.997
 31
0.0
  0
LINE
  5
A0
100
AcDbEntity
  8
10188XRPL_A_SMT
390
0
  6
CONTINUOUS2
 62
     1
100
AcDbLine
 10
0.0775
 20
1.147
 30
0.0
 11
0.0775
 21
0.997
 31
0.0
  0
LINE
  5
A1
100
AcDbEntity
  8
10188XRPL_A_SMT
390
0
  6
CONTINUOUS2
 62
     1
100
AcDbLine
 10
0.0766
 20
1.147
 30
0.0
 11
0.0766
 21
0.997
 31
0.0
  0
LINE
  5
A2
100
AcDbEntity
  8
10188XRPL_A_SMT
390
0
  6
CONTINUOUS2
 62
     1
100
AcDbLine
 10
0.0757
 20
1.147
 30
0.0
 11
0.0757
 21
0.997
 31
0.0
  0
LINE
  5
A3
100
AcDbEntity
  8
10188XRPL_A_SMT
390
0
  6
CONTINUOUS2
 62
     1
100
AcDbLine
 10
0.0748
 20
1.147
 30
0.0
 11
0.0748
 21
0.997
 31
0.0
  0
LINE
  5
A4
100
AcDbEntity
  8
10188XRPL_A_SMT
390
0
  6
CONTINUOUS2
 62
     1
100
AcDbLine
 10
0.0739
 20
1.147
 30
0.0
 11
0.0739
 21
0.997
 31
0.0
  0
LINE
  5
A5
100
AcDbEntity
  8
10188XRPL_A_SMT
390
0
  6
CONTINUOUS2
 62
     1
100
AcDbLine
 10
0.073
 20
1.147
 30
0.0
 11
0.073
 21
0.997
 31
0.0
  0
LINE
  5
A6
100
AcDbEntity
  8
10188XRPL_A_SMT
390
0
  6
CONTINUOUS2
 62
     1
100
AcDbLine
 10
0.0721
 20
1.147
 30
0.0
 11
0.0721
 21
0.997
 31
0.0
  0
LINE
  5
A7
100
AcDbEntity
  8
10188XRPL_A_SMT
390
0
  6
CONTINUOUS2
 62
     1
100
AcDbLine
 10
0.0712
 20
1.147
 30
0.0
 11
0.0712
 21
0.997
 31
0.0
  0
LINE
  5
A8
100
AcDbEntity
  8
10188XRPL_A_SMT
390
0
  6
CONTINUOUS2
 62
     1
100
AcDbLine
 10
0.0703
 20
1.147
 30
0.0
 11
0.0703
 21
0.997
 31
0.0
  0
LINE
  5
A9
100
AcDbEntity
  8
10188XRPL_A_SMT
390
0
  6
CONTINUOUS2
 62
     1
100
AcDbLine
 10
0.0694
 20
1.147
 30
0.0
 11
0.0694
 21
0.997
 31
0.0
  0
LINE
  5
AA
100
AcDbEntity
  8
10188XRPL_A_SMT
390
0
  6
CONTINUOUS2
 62
     1
100
AcDbLine
 10
0.0685
 20
1.147
 30
0.0
 11
0.0685
 21
0.997
 31
0.0
  0
LINE
  5
AB
100
AcDbEntity
  8
10188XRPL_A_SMT
390
0
  6
CONTINUOUS2
 62
     1
100
AcDbLine
 10
0.0676
 20
1.147
 30
0.0
 11
0.0676
 21
0.997
 31
0.0
  0
LINE
  5
AC
100
AcDbEntity
  8
10188XRPL_A_SMT
390
0
  6
CONTINUOUS2
 62
     1
100
AcDbLine
 10
0.0667
 20
1.147
 30
0.0
 11
0.0667
 21
0.997
 31
0.0
  0
LINE
  5
AD
100
AcDbEntity
  8
10188XRPL_A_SMT
390
0
  6
CONTINUOUS2
 62
     1
100
AcDbLine
 10
0.0658
 20
1.147
 30
0.0
 11
0.0658
 21
0.997
 31
0.0
  0
LINE
  5
AE
100
AcDbEntity
  8
10188XRPL_A_SMT
390
0
  6
CONTINUOUS2
 62
     1
100
AcDbLine
 10
0.0649
 20
1.147
 30
0.0
 11
0.0649
 21
0.997
 31
0.0
  0
LINE
  5
AF
100
AcDbEntity
  8
10188XRPL_A_SMT
390
0
  6
CONTINUOUS2
 62
     1
100
AcDbLine
 10
0.064
 20
1.147
 30
0.0
 11
0.064
 21
0.997
 31
0.0
  0
LINE
  5
B0
100
AcDbEntity
  8
10188XRPL_A_SMT
390
0
  6
CONTINUOUS2
 62
     1
100
AcDbLine
 10
0.0631
 20
1.147
 30
0.0
 11
0.0631
 21
0.997
 31
0.0
  0
LINE
  5
B1
100
AcDbEntity
  8
10188XRPL_A_SMT
390
0
  6
CONTINUOUS2
 62
     1
100
AcDbLine
 10
0.0622
 20
1.147
 30
0.0
 11
0.0622
 21
0.997
 31
0.0
  0
LINE
  5
B2
100
AcDbEntity
  8
10188XRPL_A_SMT
390
0
  6
CONTINUOUS2
 62
     1
100
AcDbLine
 10
0.0613
 20
1.147
 30
0.0
 11
0.0613
 21
0.997
 31
0.0
  0
LINE
  5
B3
100
AcDbEntity
  8
10188XRPL_A_SMT
390
0
  6
CONTINUOUS2
 62
     1
100
AcDbLine
 10
0.0604
 20
1.147
 30
0.0
 11
0.0604
 21
0.997
 31
0.0
  0
LINE
  5
B4
100
AcDbEntity
  8
10188XRPL_A_SMT
390
0
  6
CONTINUOUS2
 62
     1
100
AcDbLine
 10
0.0595
 20
1.147
 30
0.0
 11
0.0595
 21
0.997
 31
0.0
  0
LINE
  5
B5
100
AcDbEntity
  8
10188XRPL_A_SMT
390
0
  6
CONTINUOUS2
 62
     1
100
AcDbLine
 10
0.0586
 20
1.147
 30
0.0
 11
0.0586
 21
0.997
 31
0.0
  0
LINE
  5
B6
100
AcDbEntity
  8
10188XRPL_A_SMT
390
0
  6
CONTINUOUS2
 62
     1
100
AcDbLine
 10
0.0577
 20
1.147
 30
0.0
 11
0.0577
 21
0.997
 31
0.0
  0
LINE
  5
B7
100
AcDbEntity
  8
10188XRPL_A_SMT
390
0
  6
CONTINUOUS2
 62
     1
100
AcDbLine
 10
0.0568
 20
1.147
 30
0.0
 11
0.0568
 21
0.997
 31
0.0
  0
LINE
  5
B8
100
AcDbEntity
  8
10188XRPL_A_SMT
390
0
  6
CONTINUOUS2
 62
     1
100
AcDbLine
 10
0.0559
 20
1.147
 30
0.0
 11
0.0559
 21
0.997
 31
0.0
  0
LINE
  5
B9
100
AcDbEntity
  8
10188XRPL_A_SMT
390
0
  6
CONTINUOUS2
 62
     1
100
AcDbLine
 10
0.055
 20
1.147
 30
0.0
 11
0.055
 21
0.997
 31
0.0
  0
LINE
  5
BA
100
AcDbEntity
  8
10188XRPL_A_SMT
390
0
  6
CONTINUOUS2
 62
     1
100
AcDbLine
 10
0.0541
 20
1.147
 30
0.0
 11
0.0541
 21
0.997
 31
0.0
  0
LINE
  5
BB
100
AcDbEntity
  8
10188XRPL_A_SMT
390
0
  6
CONTINUOUS2
 62
     1
100
AcDbLine
 10
0.0532
 20
1.147
 30
0.0
 11
0.0532
 21
0.997
 31
0.0
  0
LINE
  5
BC
100
AcDbEntity
  8
10188XRPL_A_SMT
390
0
  6
CONTINUOUS2
 62
     1
100
AcDbLine
 10
0.0523
 20
1.147
 30
0.0
 11
0.0523
 21
0.997
 31
0.0
  0
LINE
  5
BD
100
AcDbEntity
  8
10188XRPL_A_SMT
390
0
  6
CONTINUOUS2
 62
     1
100
AcDbLine
 10
0.0514
 20
1.147
 30
0.0
 11
0.0514
 21
0.997
 31
0.0
  0
LINE
  5
BE
100
AcDbEntity
  8
10188XRPL_A_SMT
390
0
  6
CONTINUOUS2
 62
     1
100
AcDbLine
 10
0.0505
 20
1.147
 30
0.0
 11
0.0505
 21
0.997
 31
0.0
  0
LINE
  5
BF
100
AcDbEntity
  8
10188XRPL_A_SMT
390
0
  6
CONTINUOUS2
 62
     1
100
AcDbLine
 10
0.0496
 20
1.147
 30
0.0
 11
0.0496
 21
0.997
 31
0.0
  0
LINE
  5
C0
100
AcDbEntity
  8
10188XRPL_A_SMT
390
0
  6
CONTINUOUS2
 62
     1
100
AcDbLine
 10
0.0487
 20
1.147
 30
0.0
 11
0.0487
 21
0.997
 31
0.0
  0
LINE
  5
C1
100
AcDbEntity
  8
10188XRPL_A_SMT
390
0
  6
CONTINUOUS2
 62
     1
100
AcDbLine
 10
0.0478
 20
1.147
 30
0.0
 11
0.0478
 21
0.997
 31
0.0
  0
LINE
  5
C2
100
AcDbEntity
  8
10188XRPL_A_SMT
390
0
  6
CONTINUOUS2
 62
     1
100
AcDbLine
 10
0.0469
 20
1.147
 30
0.0
 11
0.0469
 21
0.997
 31
0.0
  0
LINE
  5
C3
100
AcDbEntity
  8
10188XRPL_A_SMT
390
0
  6
CONTINUOUS2
 62
     1
100
AcDbLine
 10
0.046
 20
1.147
 30
0.0
 11
0.046
 21
0.997
 31
0.0
  0
LINE
  5
C4
100
AcDbEntity
  8
10188XRPL_A_SMT
390
0
  6
CONTINUOUS2
 62
     1
100
AcDbLine
 10
0.0451
 20
1.147
 30
0.0
 11
0.0451
 21
0.997
 31
0.0
  0
LINE
  5
C5
100
AcDbEntity
  8
10188XRPL_A_SMT
390
0
  6
CONTINUOUS2
 62
     1
100
AcDbLine
 10
0.0442
 20
1.147
 30
0.0
 11
0.0442
 21
0.997
 31
0.0
  0
LINE
  5
C6
100
AcDbEntity
  8
10188XRPL_A_SMT
390
0
  6
CONTINUOUS2
 62
     1
100
AcDbLine
 10
0.0433
 20
1.147
 30
0.0
 11
0.0433
 21
0.997
 31
0.0
  0
LINE
  5
C7
100
AcDbEntity
  8
10188XRPL_A_SMT
390
0
  6
CONTINUOUS2
 62
     1
100
AcDbLine
 10
0.0424
 20
1.147
 30
0.0
 11
0.0424
 21
0.997
 31
0.0
  0
LINE
  5
C8
100
AcDbEntity
  8
10188XRPL_A_SMT
390
0
  6
CONTINUOUS2
 62
     1
100
AcDbLine
 10
0.0415
 20
1.147
 30
0.0
 11
0.0415
 21
0.997
 31
0.0
  0
LINE
  5
C9
100
AcDbEntity
  8
10188XRPL_A_SMT
390
0
  6
CONTINUOUS2
 62
     1
100
AcDbLine
 10
0.0406
 20
1.147
 30
0.0
 11
0.0406
 21
0.997
 31
0.0
  0
LINE
  5
CA
100
AcDbEntity
  8
10188XRPL_A_SMT
390
0
  6
CONTINUOUS2
 62
     1
100
AcDbLine
 10
0.0397
 20
1.147
 30
0.0
 11
0.0397
 21
0.997
 31
0.0
  0
LINE
  5
CB
100
AcDbEntity
  8
10188XRPL_A_SMT
390
0
  6
CONTINUOUS2
 62
     1
100
AcDbLine
 10
0.0388
 20
1.147
 30
0.0
 11
0.0388
 21
0.997
 31
0.0
  0
LINE
  5
CC
100
AcDbEntity
  8
10188XRPL_A_SMT
390
0
  6
CONTINUOUS2
 62
     1
100
AcDbLine
 10
0.0379
 20
1.147
 30
0.0
 11
0.0379
 21
0.997
 31
0.0
  0
LINE
  5
CD
100
AcDbEntity
  8
10188XRPL_A_SMT
390
0
  6
CONTINUOUS2
 62
     1
100
AcDbLine
 10
0.037
 20
1.147
 30
0.0
 11
0.037
 21
0.997
 31
0.0
  0
LINE
  5
CE
100
AcDbEntity
  8
10188XRPL_A_SMT
390
0
  6
CONTINUOUS2
 62
     1
100
AcDbLine
 10
0.0361
 20
1.147
 30
0.0
 11
0.0361
 21
0.997
 31
0.0
  0
LINE
  5
CF
100
AcDbEntity
  8
10188XRPL_A_SMT
390
0
  6
CONTINUOUS2
 62
     1
100
AcDbLine
 10
0.0352
 20
1.147
 30
0.0
 11
0.0352
 21
0.997
 31
0.0
  0
LINE
  5
D0
100
AcDbEntity
  8
10188XRPL_A_SMT
390
0
  6
CONTINUOUS2
 62
     1
100
AcDbLine
 10
0.0343
 20
1.147
 30
0.0
 11
0.0343
 21
0.997
 31
0.0
  0
LINE
  5
D1
100
AcDbEntity
  8
10188XRPL_A_SMT
390
0
  6
CONTINUOUS2
 62
     1
100
AcDbLine
 10
0.0334
 20
1.147
 30
0.0
 11
0.0334
 21
0.997
 31
0.0
  0
LINE
  5
D2
100
AcDbEntity
  8
10188XRPL_A_SMT
390
0
  6
CONTINUOUS2
 62
     1
100
AcDbLine
 10
0.0325
 20
1.147
 30
0.0
 11
0.0325
 21
0.997
 31
0.0
  0
LINE
  5
D3
100
AcDbEntity
  8
10188XRPL_A_SMT
390
0
  6
CONTINUOUS2
 62
     1
100
AcDbLine
 10
0.0316
 20
1.147
 30
0.0
 11
0.0316
 21
0.997
 31
0.0
  0
LINE
  5
D4
100
AcDbEntity
  8
10188XRPL_A_SMT
390
0
  6
CONTINUOUS2
 62
     1
100
AcDbLine
 10
0.0307
 20
1.147
 30
0.0
 11
0.0307
 21
0.997
 31
0.0
  0
LINE
  5
D5
100
AcDbEntity
  8
10188XRPL_A_SMT
390
0
  6
CONTINUOUS2
 62
     1
100
AcDbLine
 10
0.0298
 20
1.147
 30
0.0
 11
0.0298
 21
0.997
 31
0.0
  0
LINE
  5
D6
100
AcDbEntity
  8
10188XRPL_A_SMT
390
0
  6
CONTINUOUS2
 62
     1
100
AcDbLine
 10
0.0289
 20
1.147
 30
0.0
 11
0.0289
 21
0.997
 31
0.0
  0
LINE
  5
D7
100
AcDbEntity
  8
10188XRPL_A_SMT
390
0
  6
CONTINUOUS2
 62
     1
100
AcDbLine
 10
0.028
 20
1.147
 30
0.0
 11
0.028
 21
0.997
 31
0.0
  0
LINE
  5
D8
100
AcDbEntity
  8
10188XRPL_A_SMT
390
0
  6
CONTINUOUS2
 62
     1
100
AcDbLine
 10
0.0271
 20
1.147
 30
0.0
 11
0.0271
 21
0.997
 31
0.0
  0
LINE
  5
D9
100
AcDbEntity
  8
10188XRPL_A_SMT
390
0
  6
CONTINUOUS2
 62
     1
100
AcDbLine
 10
0.0262
 20
1.147
 30
0.0
 11
0.0262
 21
0.997
 31
0.0
  0
LINE
  5
DA
100
AcDbEntity
  8
10188XRPL_A_SMT
390
0
  6
CONTINUOUS2
 62
     1
100
AcDbLine
 10
0.0253
 20
1.147
 30
0.0
 11
0.0253
 21
0.997
 31
0.0
  0
LINE
  5
DB
100
AcDbEntity
  8
10188XRPL_A_SMT
390
0
  6
CONTINUOUS2
 62
     1
100
AcDbLine
 10
0.0244
 20
1.147
 30
0.0
 11
0.0244
 21
0.997
 31
0.0
  0
LINE
  5
DC
100
AcDbEntity
  8
10188XRPL_A_SMT
390
0
  6
CONTINUOUS2
 62
     1
100
AcDbLine
 10
0.0235
 20
1.147
 30
0.0
 11
0.0235
 21
0.997
 31
0.0
  0
LINE
  5
DD
100
AcDbEntity
  8
10188XRPL_A_SMT
390
0
  6
CONTINUOUS2
 62
     1
100
AcDbLine
 10
0.0226
 20
1.147
 30
0.0
 11
0.0226
 21
0.997
 31
0.0
  0
LINE
  5
DE
100
AcDbEntity
  8
10188XRPL_A_SMT
390
0
  6
CONTINUOUS2
 62
     1
100
AcDbLine
 10
0.0217
 20
1.147
 30
0.0
 11
0.0217
 21
0.997
 31
0.0
  0
LINE
  5
DF
100
AcDbEntity
  8
10188XRPL_A_SMT
390
0
  6
CONTINUOUS2
 62
     1
100
AcDbLine
 10
0.0208
 20
1.147
 30
0.0
 11
0.0208
 21
0.997
 31
0.0
  0
LINE
  5
E0
100
AcDbEntity
  8
10188XRPL_A_SMT
390
0
  6
CONTINUOUS2
 62
     1
100
AcDbLine
 10
0.0199
 20
1.147
 30
0.0
 11
0.0199
 21
0.997
 31
0.0
  0
LINE
  5
E1
100
AcDbEntity
  8
10188XRPL_A_SMT
390
0
  6
CONTINUOUS2
 62
     1
100
AcDbLine
 10
0.019
 20
1.147
 30
0.0
 11
0.019
 21
0.997
 31
0.0
  0
LINE
  5
E2
100
AcDbEntity
  8
10188XRPL_A_SMT
390
0
  6
CONTINUOUS2
 62
     1
100
AcDbLine
 10
0.0181
 20
1.147
 30
0.0
 11
0.0181
 21
0.997
 31
0.0
  0
LINE
  5
E3
100
AcDbEntity
  8
10188XRPL_A_SMT
390
0
  6
CONTINUOUS2
 62
     1
100
AcDbLine
 10
0.0172
 20
1.147
 30
0.0
 11
0.0172
 21
0.997
 31
0.0
  0
LINE
  5
E4
100
AcDbEntity
  8
10188XRPL_A_SMT
390
0
  6
CONTINUOUS2
 62
     1
100
AcDbLine
 10
0.0163
 20
1.147
 30
0.0
 11
0.0163
 21
0.997
 31
0.0
  0
LINE
  5
E5
100
AcDbEntity
  8
10188XRPL_A_SMT
390
0
  6
CONTINUOUS2
 62
     1
100
AcDbLine
 10
0.142
 20
1.1459
 30
0.0
 11
0.015
 21
1.1459
 31
0.0
  0
LINE
  5
E6
100
AcDbEntity
  8
10188XRPL_A_SMT
390
0
  6
CONTINUOUS2
 62
     1
100
AcDbLine
 10
0.142
 20
1.145
 30
0.0
 11
0.015
 21
1.145
 31
0.0
  0
LINE
  5
E7
100
AcDbEntity
  8
10188XRPL_A_SMT
390
0
  6
CONTINUOUS2
 62
     1
100
AcDbLine
 10
0.142
 20
1.1441
 30
0.0
 11
0.015
 21
1.1441
 31
0.0
  0
LINE
  5
E8
100
AcDbEntity
  8
10188XRPL_A_SMT
390
0
  6
CONTINUOUS2
 62
     1
100
AcDbLine
 10
0.142
 20
1.1432
 30
0.0
 11
0.015
 21
1.1432
 31
0.0
  0
LINE
  5
E9
100
AcDbEntity
  8
10188XRPL_A_SMT
390
0
  6
CONTINUOUS2
 62
     1
100
AcDbLine
 10
0.142
 20
1.1423
 30
0.0
 11
0.015
 21
1.1423
 31
0.0
  0
LINE
  5
EA
100
AcDbEntity
  8
10188XRPL_A_SMT
390
0
  6
CONTINUOUS2
 62
     1
100
AcDbLine
 10
0.142
 20
1.1414
 30
0.0
 11
0.015
 21
1.1414
 31
0.0
  0
LINE
  5
EB
100
AcDbEntity
  8
10188XRPL_A_SMT
390
0
  6
CONTINUOUS2
 62
     1
100
AcDbLine
 10
0.142
 20
1.1405
 30
0.0
 11
0.015
 21
1.1405
 31
0.0
  0
LINE
  5
EC
100
AcDbEntity
  8
10188XRPL_A_SMT
390
0
  6
CONTINUOUS2
 62
     1
100
AcDbLine
 10
0.142
 20
1.1396
 30
0.0
 11
0.015
 21
1.1396
 31
0.0
  0
LINE
  5
ED
100
AcDbEntity
  8
10188XRPL_A_SMT
390
0
  6
CONTINUOUS2
 62
     1
100
AcDbLine
 10
0.142
 20
1.1387
 30
0.0
 11
0.015
 21
1.1387
 31
0.0
  0
LINE
  5
EE
100
AcDbEntity
  8
10188XRPL_A_SMT
390
0
  6
CONTINUOUS2
 62
     1
100
AcDbLine
 10
0.142
 20
1.1378
 30
0.0
 11
0.015
 21
1.1378
 31
0.0
  0
LINE
  5
EF
100
AcDbEntity
  8
10188XRPL_A_SMT
390
0
  6
CONTINUOUS2
 62
     1
100
AcDbLine
 10
0.142
 20
1.1369
 30
0.0
 11
0.015
 21
1.1369
 31
0.0
  0
LINE
  5
F0
100
AcDbEntity
  8
10188XRPL_A_SMT
390
0
  6
CONTINUOUS2
 62
     1
100
AcDbLine
 10
0.142
 20
1.136
 30
0.0
 11
0.015
 21
1.136
 31
0.0
  0
LINE
  5
F1
100
AcDbEntity
  8
10188XRPL_A_SMT
390
0
  6
CONTINUOUS2
 62
     1
100
AcDbLine
 10
0.142
 20
1.1351
 30
0.0
 11
0.015
 21
1.1351
 31
0.0
  0
LINE
  5
F2
100
AcDbEntity
  8
10188XRPL_A_SMT
390
0
  6
CONTINUOUS2
 62
     1
100
AcDbLine
 10
0.142
 20
1.1342
 30
0.0
 11
0.015
 21
1.1342
 31
0.0
  0
LINE
  5
F3
100
AcDbEntity
  8
10188XRPL_A_SMT
390
0
  6
CONTINUOUS2
 62
     1
100
AcDbLine
 10
0.142
 20
1.1333
 30
0.0
 11
0.015
 21
1.1333
 31
0.0
  0
LINE
  5
F4
100
AcDbEntity
  8
10188XRPL_A_SMT
390
0
  6
CONTINUOUS2
 62
     1
100
AcDbLine
 10
0.142
 20
1.1324
 30
0.0
 11
0.015
 21
1.1324
 31
0.0
  0
LINE
  5
F5
100
AcDbEntity
  8
10188XRPL_A_SMT
390
0
  6
CONTINUOUS2
 62
     1
100
AcDbLine
 10
0.142
 20
1.1315
 30
0.0
 11
0.015
 21
1.1315
 31
0.0
  0
LINE
  5
F6
100
AcDbEntity
  8
10188XRPL_A_SMT
390
0
  6
CONTINUOUS2
 62
     1
100
AcDbLine
 10
0.142
 20
1.1306
 30
0.0
 11
0.015
 21
1.1306
 31
0.0
  0
LINE
  5
F7
100
AcDbEntity
  8
10188XRPL_A_SMT
390
0
  6
CONTINUOUS2
 62
     1
100
AcDbLine
 10
0.142
 20
1.1297
 30
0.0
 11
0.015
 21
1.1297
 31
0.0
  0
LINE
  5
F8
100
AcDbEntity
  8
10188XRPL_A_SMT
390
0
  6
CONTINUOUS2
 62
     1
100
AcDbLine
 10
0.142
 20
1.1288
 30
0.0
 11
0.015
 21
1.1288
 31
0.0
  0
LINE
  5
F9
100
AcDbEntity
  8
10188XRPL_A_SMT
390
0
  6
CONTINUOUS2
 62
     1
100
AcDbLine
 10
0.142
 20
1.1279
 30
0.0
 11
0.015
 21
1.1279
 31
0.0
  0
LINE
  5
FA
100
AcDbEntity
  8
10188XRPL_A_SMT
390
0
  6
CONTINUOUS2
 62
     1
100
AcDbLine
 10
0.142
 20
1.127
 30
0.0
 11
0.015
 21
1.127
 31
0.0
  0
LINE
  5
FB
100
AcDbEntity
  8
10188XRPL_A_SMT
390
0
  6
CONTINUOUS2
 62
     1
100
AcDbLine
 10
0.142
 20
1.1261
 30
0.0
 11
0.015
 21
1.1261
 31
0.0
  0
LINE
  5
FC
100
AcDbEntity
  8
10188XRPL_A_SMT
390
0
  6
CONTINUOUS2
 62
     1
100
AcDbLine
 10
0.142
 20
1.1252
 30
0.0
 11
0.015
 21
1.1252
 31
0.0
  0
LINE
  5
FD
100
AcDbEntity
  8
10188XRPL_A_SMT
390
0
  6
CONTINUOUS2
 62
     1
100
AcDbLine
 10
0.142
 20
1.1243
 30
0.0
 11
0.015
 21
1.1243
 31
0.0
  0
LINE
  5
FE
100
AcDbEntity
  8
10188XRPL_A_SMT
390
0
  6
CONTINUOUS2
 62
     1
100
AcDbLine
 10
0.142
 20
1.1234
 30
0.0
 11
0.015
 21
1.1234
 31
0.0
  0
LINE
  5
FF
100
AcDbEntity
  8
10188XRPL_A_SMT
390
0
  6
CONTINUOUS2
 62
     1
100
AcDbLine
 10
0.142
 20
1.1225
 30
0.0
 11
0.015
 21
1.1225
 31
0.0
  0
LINE
  5
100
100
AcDbEntity
  8
10188XRPL_A_SMT
390
0
  6
CONTINUOUS2
 62
     1
100
AcDbLine
 10
0.142
 20
1.1216
 30
0.0
 11
0.015
 21
1.1216
 31
0.0
  0
LINE
  5
101
100
AcDbEntity
  8
10188XRPL_A_SMT
390
0
  6
CONTINUOUS2
 62
     1
100
AcDbLine
 10
0.142
 20
1.1207
 30
0.0
 11
0.015
 21
1.1207
 31
0.0
  0
LINE
  5
102
100
AcDbEntity
  8
10188XRPL_A_SMT
390
0
  6
CONTINUOUS2
 62
     1
100
AcDbLine
 10
0.142
 20
1.1198
 30
0.0
 11
0.015
 21
1.1198
 31
0.0
  0
LINE
  5
103
100
AcDbEntity
  8
10188XRPL_A_SMT
390
0
  6
CONTINUOUS2
 62
     1
100
AcDbLine
 10
0.142
 20
1.1189
 30
0.0
 11
0.015
 21
1.1189
 31
0.0
  0
LINE
  5
104
100
AcDbEntity
  8
10188XRPL_A_SMT
390
0
  6
CONTINUOUS2
 62
     1
100
AcDbLine
 10
0.142
 20
1.118
 30
0.0
 11
0.015
 21
1.118
 31
0.0
  0
LINE
  5
105
100
AcDbEntity
  8
10188XRPL_A_SMT
390
0
  6
CONTINUOUS2
 62
     1
100
AcDbLine
 10
0.142
 20
1.1171
 30
0.0
 11
0.015
 21
1.1171
 31
0.0
  0
LINE
  5
106
100
AcDbEntity
  8
10188XRPL_A_SMT
390
0
  6
CONTINUOUS2
 62
     1
100
AcDbLine
 10
0.142
 20
1.1162
 30
0.0
 11
0.015
 21
1.1162
 31
0.0
  0
LINE
  5
107
100
AcDbEntity
  8
10188XRPL_A_SMT
390
0
  6
CONTINUOUS2
 62
     1
100
AcDbLine
 10
0.142
 20
1.1153
 30
0.0
 11
0.015
 21
1.1153
 31
0.0
  0
LINE
  5
108
100
AcDbEntity
  8
10188XRPL_A_SMT
390
0
  6
CONTINUOUS2
 62
     1
100
AcDbLine
 10
0.142
 20
1.1144
 30
0.0
 11
0.015
 21
1.1144
 31
0.0
  0
LINE
  5
109
100
AcDbEntity
  8
10188XRPL_A_SMT
390
0
  6
CONTINUOUS2
 62
     1
100
AcDbLine
 10
0.142
 20
1.1135
 30
0.0
 11
0.015
 21
1.1135
 31
0.0
  0
LINE
  5
10A
100
AcDbEntity
  8
10188XRPL_A_SMT
390
0
  6
CONTINUOUS2
 62
     1
100
AcDbLine
 10
0.142
 20
1.1126
 30
0.0
 11
0.015
 21
1.1126
 31
0.0
  0
LINE
  5
10B
100
AcDbEntity
  8
10188XRPL_A_SMT
390
0
  6
CONTINUOUS2
 62
     1
100
AcDbLine
 10
0.142
 20
1.1117
 30
0.0
 11
0.015
 21
1.1117
 31
0.0
  0
LINE
  5
10C
100
AcDbEntity
  8
10188XRPL_A_SMT
390
0
  6
CONTINUOUS2
 62
     1
100
AcDbLine
 10
0.142
 20
1.1108
 30
0.0
 11
0.015
 21
1.1108
 31
0.0
  0
LINE
  5
10D
100
AcDbEntity
  8
10188XRPL_A_SMT
390
0
  6
CONTINUOUS2
 62
     1
100
AcDbLine
 10
0.142
 20
1.1099
 30
0.0
 11
0.015
 21
1.1099
 31
0.0
  0
LINE
  5
10E
100
AcDbEntity
  8
10188XRPL_A_SMT
390
0
  6
CONTINUOUS2
 62
     1
100
AcDbLine
 10
0.142
 20
1.109
 30
0.0
 11
0.015
 21
1.109
 31
0.0
  0
LINE
  5
10F
100
AcDbEntity
  8
10188XRPL_A_SMT
390
0
  6
CONTINUOUS2
 62
     1
100
AcDbLine
 10
0.142
 20
1.1081
 30
0.0
 11
0.015
 21
1.1081
 31
0.0
  0
LINE
  5
110
100
AcDbEntity
  8
10188XRPL_A_SMT
390
0
  6
CONTINUOUS2
 62
     1
100
AcDbLine
 10
0.142
 20
1.1072
 30
0.0
 11
0.015
 21
1.1072
 31
0.0
  0
LINE
  5
111
100
AcDbEntity
  8
10188XRPL_A_SMT
390
0
  6
CONTINUOUS2
 62
     1
100
AcDbLine
 10
0.142
 20
1.1063
 30
0.0
 11
0.015
 21
1.1063
 31
0.0
  0
LINE
  5
112
100
AcDbEntity
  8
10188XRPL_A_SMT
390
0
  6
CONTINUOUS2
 62
     1
100
AcDbLine
 10
0.142
 20
1.1054
 30
0.0
 11
0.015
 21
1.1054
 31
0.0
  0
LINE
  5
113
100
AcDbEntity
  8
10188XRPL_A_SMT
390
0
  6
CONTINUOUS2
 62
     1
100
AcDbLine
 10
0.142
 20
1.1045
 30
0.0
 11
0.015
 21
1.1045
 31
0.0
  0
LINE
  5
114
100
AcDbEntity
  8
10188XRPL_A_SMT
390
0
  6
CONTINUOUS2
 62
     1
100
AcDbLine
 10
0.142
 20
1.1036
 30
0.0
 11
0.015
 21
1.1036
 31
0.0
  0
LINE
  5
115
100
AcDbEntity
  8
10188XRPL_A_SMT
390
0
  6
CONTINUOUS2
 62
     1
100
AcDbLine
 10
0.142
 20
1.1027
 30
0.0
 11
0.015
 21
1.1027
 31
0.0
  0
LINE
  5
116
100
AcDbEntity
  8
10188XRPL_A_SMT
390
0
  6
CONTINUOUS2
 62
     1
100
AcDbLine
 10
0.142
 20
1.1018
 30
0.0
 11
0.015
 21
1.1018
 31
0.0
  0
LINE
  5
117
100
AcDbEntity
  8
10188XRPL_A_SMT
390
0
  6
CONTINUOUS2
 62
     1
100
AcDbLine
 10
0.142
 20
1.1009
 30
0.0
 11
0.015
 21
1.1009
 31
0.0
  0
LINE
  5
118
100
AcDbEntity
  8
10188XRPL_A_SMT
390
0
  6
CONTINUOUS2
 62
     1
100
AcDbLine
 10
0.142
 20
1.1
 30
0.0
 11
0.015
 21
1.1
 31
0.0
  0
LINE
  5
119
100
AcDbEntity
  8
10188XRPL_A_SMT
390
0
  6
CONTINUOUS2
 62
     1
100
AcDbLine
 10
0.142
 20
1.0991
 30
0.0
 11
0.015
 21
1.0991
 31
0.0
  0
LINE
  5
11A
100
AcDbEntity
  8
10188XRPL_A_SMT
390
0
  6
CONTINUOUS2
 62
     1
100
AcDbLine
 10
0.142
 20
1.0982
 30
0.0
 11
0.015
 21
1.0982
 31
0.0
  0
LINE
  5
11B
100
AcDbEntity
  8
10188XRPL_A_SMT
390
0
  6
CONTINUOUS2
 62
     1
100
AcDbLine
 10
0.142
 20
1.0973
 30
0.0
 11
0.015
 21
1.0973
 31
0.0
  0
LINE
  5
11C
100
AcDbEntity
  8
10188XRPL_A_SMT
390
0
  6
CONTINUOUS2
 62
     1
100
AcDbLine
 10
0.142
 20
1.0964
 30
0.0
 11
0.015
 21
1.0964
 31
0.0
  0
LINE
  5
11D
100
AcDbEntity
  8
10188XRPL_A_SMT
390
0
  6
CONTINUOUS2
 62
     1
100
AcDbLine
 10
0.142
 20
1.0955
 30
0.0
 11
0.015
 21
1.0955
 31
0.0
  0
LINE
  5
11E
100
AcDbEntity
  8
10188XRPL_A_SMT
390
0
  6
CONTINUOUS2
 62
     1
100
AcDbLine
 10
0.142
 20
1.0946
 30
0.0
 11
0.015
 21
1.0946
 31
0.0
  0
LINE
  5
11F
100
AcDbEntity
  8
10188XRPL_A_SMT
390
0
  6
CONTINUOUS2
 62
     1
100
AcDbLine
 10
0.142
 20
1.0937
 30
0.0
 11
0.015
 21
1.0937
 31
0.0
  0
LINE
  5
120
100
AcDbEntity
  8
10188XRPL_A_SMT
390
0
  6
CONTINUOUS2
 62
     1
100
AcDbLine
 10
0.142
 20
1.0928
 30
0.0
 11
0.015
 21
1.0928
 31
0.0
  0
LINE
  5
121
100
AcDbEntity
  8
10188XRPL_A_SMT
390
0
  6
CONTINUOUS2
 62
     1
100
AcDbLine
 10
0.142
 20
1.0919
 30
0.0
 11
0.015
 21
1.0919
 31
0.0
  0
LINE
  5
122
100
AcDbEntity
  8
10188XRPL_A_SMT
390
0
  6
CONTINUOUS2
 62
     1
100
AcDbLine
 10
0.142
 20
1.091
 30
0.0
 11
0.015
 21
1.091
 31
0.0
  0
LINE
  5
123
100
AcDbEntity
  8
10188XRPL_A_SMT
390
0
  6
CONTINUOUS2
 62
     1
100
AcDbLine
 10
0.142
 20
1.0901
 30
0.0
 11
0.015
 21
1.0901
 31
0.0
  0
LINE
  5
124
100
AcDbEntity
  8
10188XRPL_A_SMT
390
0
  6
CONTINUOUS2
 62
     1
100
AcDbLine
 10
0.142
 20
1.0892
 30
0.0
 11
0.015
 21
1.0892
 31
0.0
  0
LINE
  5
125
100
AcDbEntity
  8
10188XRPL_A_SMT
390
0
  6
CONTINUOUS2
 62
     1
100
AcDbLine
 10
0.142
 20
1.0883
 30
0.0
 11
0.015
 21
1.0883
 31
0.0
  0
LINE
  5
126
100
AcDbEntity
  8
10188XRPL_A_SMT
390
0
  6
CONTINUOUS2
 62
     1
100
AcDbLine
 10
0.142
 20
1.0874
 30
0.0
 11
0.015
 21
1.0874
 31
0.0
  0
LINE
  5
127
100
AcDbEntity
  8
10188XRPL_A_SMT
390
0
  6
CONTINUOUS2
 62
     1
100
AcDbLine
 10
0.142
 20
1.0865
 30
0.0
 11
0.015
 21
1.0865
 31
0.0
  0
LINE
  5
128
100
AcDbEntity
  8
10188XRPL_A_SMT
390
0
  6
CONTINUOUS2
 62
     1
100
AcDbLine
 10
0.142
 20
1.0856
 30
0.0
 11
0.015
 21
1.0856
 31
0.0
  0
LINE
  5
129
100
AcDbEntity
  8
10188XRPL_A_SMT
390
0
  6
CONTINUOUS2
 62
     1
100
AcDbLine
 10
0.142
 20
1.0847
 30
0.0
 11
0.015
 21
1.0847
 31
0.0
  0
LINE
  5
12A
100
AcDbEntity
  8
10188XRPL_A_SMT
390
0
  6
CONTINUOUS2
 62
     1
100
AcDbLine
 10
0.142
 20
1.0838
 30
0.0
 11
0.015
 21
1.0838
 31
0.0
  0
LINE
  5
12B
100
AcDbEntity
  8
10188XRPL_A_SMT
390
0
  6
CONTINUOUS2
 62
     1
100
AcDbLine
 10
0.142
 20
1.0829
 30
0.0
 11
0.015
 21
1.0829
 31
0.0
  0
LINE
  5
12C
100
AcDbEntity
  8
10188XRPL_A_SMT
390
0
  6
CONTINUOUS2
 62
     1
100
AcDbLine
 10
0.142
 20
1.082
 30
0.0
 11
0.015
 21
1.082
 31
0.0
  0
LINE
  5
12D
100
AcDbEntity
  8
10188XRPL_A_SMT
390
0
  6
CONTINUOUS2
 62
     1
100
AcDbLine
 10
0.142
 20
1.0811
 30
0.0
 11
0.015
 21
1.0811
 31
0.0
  0
LINE
  5
12E
100
AcDbEntity
  8
10188XRPL_A_SMT
390
0
  6
CONTINUOUS2
 62
     1
100
AcDbLine
 10
0.142
 20
1.0802
 30
0.0
 11
0.015
 21
1.0802
 31
0.0
  0
LINE
  5
12F
100
AcDbEntity
  8
10188XRPL_A_SMT
390
0
  6
CONTINUOUS2
 62
     1
100
AcDbLine
 10
0.142
 20
1.0793
 30
0.0
 11
0.015
 21
1.0793
 31
0.0
  0
LINE
  5
130
100
AcDbEntity
  8
10188XRPL_A_SMT
390
0
  6
CONTINUOUS2
 62
     1
100
AcDbLine
 10
0.142
 20
1.0784
 30
0.0
 11
0.015
 21
1.0784
 31
0.0
  0
LINE
  5
131
100
AcDbEntity
  8
10188XRPL_A_SMT
390
0
  6
CONTINUOUS2
 62
     1
100
AcDbLine
 10
0.142
 20
1.0775
 30
0.0
 11
0.015
 21
1.0775
 31
0.0
  0
LINE
  5
132
100
AcDbEntity
  8
10188XRPL_A_SMT
390
0
  6
CONTINUOUS2
 62
     1
100
AcDbLine
 10
0.142
 20
1.0766
 30
0.0
 11
0.015
 21
1.0766
 31
0.0
  0
LINE
  5
133
100
AcDbEntity
  8
10188XRPL_A_SMT
390
0
  6
CONTINUOUS2
 62
     1
100
AcDbLine
 10
0.142
 20
1.0757
 30
0.0
 11
0.015
 21
1.0757
 31
0.0
  0
LINE
  5
134
100
AcDbEntity
  8
10188XRPL_A_SMT
390
0
  6
CONTINUOUS2
 62
     1
100
AcDbLine
 10
0.142
 20
1.0748
 30
0.0
 11
0.015
 21
1.0748
 31
0.0
  0
LINE
  5
135
100
AcDbEntity
  8
10188XRPL_A_SMT
390
0
  6
CONTINUOUS2
 62
     1
100
AcDbLine
 10
0.142
 20
1.0739
 30
0.0
 11
0.015
 21
1.0739
 31
0.0
  0
LINE
  5
136
100
AcDbEntity
  8
10188XRPL_A_SMT
390
0
  6
CONTINUOUS2
 62
     1
100
AcDbLine
 10
0.142
 20
1.073
 30
0.0
 11
0.015
 21
1.073
 31
0.0
  0
LINE
  5
137
100
AcDbEntity
  8
10188XRPL_A_SMT
390
0
  6
CONTINUOUS2
 62
     1
100
AcDbLine
 10
0.142
 20
1.0721
 30
0.0
 11
0.015
 21
1.0721
 31
0.0
  0
LINE
  5
138
100
AcDbEntity
  8
10188XRPL_A_SMT
390
0
  6
CONTINUOUS2
 62
     1
100
AcDbLine
 10
0.142
 20
1.0712
 30
0.0
 11
0.015
 21
1.0712
 31
0.0
  0
LINE
  5
139
100
AcDbEntity
  8
10188XRPL_A_SMT
390
0
  6
CONTINUOUS2
 62
     1
100
AcDbLine
 10
0.142
 20
1.0703
 30
0.0
 11
0.015
 21
1.0703
 31
0.0
  0
LINE
  5
13A
100
AcDbEntity
  8
10188XRPL_A_SMT
390
0
  6
CONTINUOUS2
 62
     1
100
AcDbLine
 10
0.142
 20
1.0694
 30
0.0
 11
0.015
 21
1.0694
 31
0.0
  0
LINE
  5
13B
100
AcDbEntity
  8
10188XRPL_A_SMT
390
0
  6
CONTINUOUS2
 62
     1
100
AcDbLine
 10
0.142
 20
1.0685
 30
0.0
 11
0.015
 21
1.0685
 31
0.0
  0
LINE
  5
13C
100
AcDbEntity
  8
10188XRPL_A_SMT
390
0
  6
CONTINUOUS2
 62
     1
100
AcDbLine
 10
0.142
 20
1.0676
 30
0.0
 11
0.015
 21
1.0676
 31
0.0
  0
LINE
  5
13D
100
AcDbEntity
  8
10188XRPL_A_SMT
390
0
  6
CONTINUOUS2
 62
     1
100
AcDbLine
 10
0.142
 20
1.0667
 30
0.0
 11
0.015
 21
1.0667
 31
0.0
  0
LINE
  5
13E
100
AcDbEntity
  8
10188XRPL_A_SMT
390
0
  6
CONTINUOUS2
 62
     1
100
AcDbLine
 10
0.142
 20
1.0658
 30
0.0
 11
0.015
 21
1.0658
 31
0.0
  0
LINE
  5
13F
100
AcDbEntity
  8
10188XRPL_A_SMT
390
0
  6
CONTINUOUS2
 62
     1
100
AcDbLine
 10
0.142
 20
1.0649
 30
0.0
 11
0.015
 21
1.0649
 31
0.0
  0
LINE
  5
140
100
AcDbEntity
  8
10188XRPL_A_SMT
390
0
  6
CONTINUOUS2
 62
     1
100
AcDbLine
 10
0.142
 20
1.064
 30
0.0
 11
0.015
 21
1.064
 31
0.0
  0
LINE
  5
141
100
AcDbEntity
  8
10188XRPL_A_SMT
390
0
  6
CONTINUOUS2
 62
     1
100
AcDbLine
 10
0.142
 20
1.0631
 30
0.0
 11
0.015
 21
1.0631
 31
0.0
  0
LINE
  5
142
100
AcDbEntity
  8
10188XRPL_A_SMT
390
0
  6
CONTINUOUS2
 62
     1
100
AcDbLine
 10
0.142
 20
1.0622
 30
0.0
 11
0.015
 21
1.0622
 31
0.0
  0
LINE
  5
143
100
AcDbEntity
  8
10188XRPL_A_SMT
390
0
  6
CONTINUOUS2
 62
     1
100
AcDbLine
 10
0.142
 20
1.0613
 30
0.0
 11
0.015
 21
1.0613
 31
0.0
  0
LINE
  5
144
100
AcDbEntity
  8
10188XRPL_A_SMT
390
0
  6
CONTINUOUS2
 62
     1
100
AcDbLine
 10
0.142
 20
1.0604
 30
0.0
 11
0.015
 21
1.0604
 31
0.0
  0
LINE
  5
145
100
AcDbEntity
  8
10188XRPL_A_SMT
390
0
  6
CONTINUOUS2
 62
     1
100
AcDbLine
 10
0.142
 20
1.0595
 30
0.0
 11
0.015
 21
1.0595
 31
0.0
  0
LINE
  5
146
100
AcDbEntity
  8
10188XRPL_A_SMT
390
0
  6
CONTINUOUS2
 62
     1
100
AcDbLine
 10
0.142
 20
1.0586
 30
0.0
 11
0.015
 21
1.0586
 31
0.0
  0
LINE
  5
147
100
AcDbEntity
  8
10188XRPL_A_SMT
390
0
  6
CONTINUOUS2
 62
     1
100
AcDbLine
 10
0.142
 20
1.0577
 30
0.0
 11
0.015
 21
1.0577
 31
0.0
  0
LINE
  5
148
100
AcDbEntity
  8
10188XRPL_A_SMT
390
0
  6
CONTINUOUS2
 62
     1
100
AcDbLine
 10
0.142
 20
1.0568
 30
0.0
 11
0.015
 21
1.0568
 31
0.0
  0
LINE
  5
149
100
AcDbEntity
  8
10188XRPL_A_SMT
390
0
  6
CONTINUOUS2
 62
     1
100
AcDbLine
 10
0.142
 20
1.0559
 30
0.0
 11
0.015
 21
1.0559
 31
0.0
  0
LINE
  5
14A
100
AcDbEntity
  8
10188XRPL_A_SMT
390
0
  6
CONTINUOUS2
 62
     1
100
AcDbLine
 10
0.142
 20
1.055
 30
0.0
 11
0.015
 21
1.055
 31
0.0
  0
LINE
  5
14B
100
AcDbEntity
  8
10188XRPL_A_SMT
390
0
  6
CONTINUOUS2
 62
     1
100
AcDbLine
 10
0.142
 20
1.0541
 30
0.0
 11
0.015
 21
1.0541
 31
0.0
  0
LINE
  5
14C
100
AcDbEntity
  8
10188XRPL_A_SMT
390
0
  6
CONTINUOUS2
 62
     1
100
AcDbLine
 10
0.142
 20
1.0532
 30
0.0
 11
0.015
 21
1.0532
 31
0.0
  0
LINE
  5
14D
100
AcDbEntity
  8
10188XRPL_A_SMT
390
0
  6
CONTINUOUS2
 62
     1
100
AcDbLine
 10
0.142
 20
1.0523
 30
0.0
 11
0.015
 21
1.0523
 31
0.0
  0
LINE
  5
14E
100
AcDbEntity
  8
10188XRPL_A_SMT
390
0
  6
CONTINUOUS2
 62
     1
100
AcDbLine
 10
0.142
 20
1.0514
 30
0.0
 11
0.015
 21
1.0514
 31
0.0
  0
LINE
  5
14F
100
AcDbEntity
  8
10188XRPL_A_SMT
390
0
  6
CONTINUOUS2
 62
     1
100
AcDbLine
 10
0.142
 20
1.0505
 30
0.0
 11
0.015
 21
1.0505
 31
0.0
  0
LINE
  5
150
100
AcDbEntity
  8
10188XRPL_A_SMT
390
0
  6
CONTINUOUS2
 62
     1
100
AcDbLine
 10
0.142
 20
1.0496
 30
0.0
 11
0.015
 21
1.0496
 31
0.0
  0
LINE
  5
151
100
AcDbEntity
  8
10188XRPL_A_SMT
390
0
  6
CONTINUOUS2
 62
     1
100
AcDbLine
 10
0.142
 20
1.0487
 30
0.0
 11
0.015
 21
1.0487
 31
0.0
  0
LINE
  5
152
100
AcDbEntity
  8
10188XRPL_A_SMT
390
0
  6
CONTINUOUS2
 62
     1
100
AcDbLine
 10
0.142
 20
1.0478
 30
0.0
 11
0.015
 21
1.0478
 31
0.0
  0
LINE
  5
153
100
AcDbEntity
  8
10188XRPL_A_SMT
390
0
  6
CONTINUOUS2
 62
     1
100
AcDbLine
 10
0.142
 20
1.0469
 30
0.0
 11
0.015
 21
1.0469
 31
0.0
  0
LINE
  5
154
100
AcDbEntity
  8
10188XRPL_A_SMT
390
0
  6
CONTINUOUS2
 62
     1
100
AcDbLine
 10
0.142
 20
1.046
 30
0.0
 11
0.015
 21
1.046
 31
0.0
  0
LINE
  5
155
100
AcDbEntity
  8
10188XRPL_A_SMT
390
0
  6
CONTINUOUS2
 62
     1
100
AcDbLine
 10
0.142
 20
1.0451
 30
0.0
 11
0.015
 21
1.0451
 31
0.0
  0
LINE
  5
156
100
AcDbEntity
  8
10188XRPL_A_SMT
390
0
  6
CONTINUOUS2
 62
     1
100
AcDbLine
 10
0.142
 20
1.0442
 30
0.0
 11
0.015
 21
1.0442
 31
0.0
  0
LINE
  5
157
100
AcDbEntity
  8
10188XRPL_A_SMT
390
0
  6
CONTINUOUS2
 62
     1
100
AcDbLine
 10
0.142
 20
1.0433
 30
0.0
 11
0.015
 21
1.0433
 31
0.0
  0
LINE
  5
158
100
AcDbEntity
  8
10188XRPL_A_SMT
390
0
  6
CONTINUOUS2
 62
     1
100
AcDbLine
 10
0.142
 20
1.0424
 30
0.0
 11
0.015
 21
1.0424
 31
0.0
  0
LINE
  5
159
100
AcDbEntity
  8
10188XRPL_A_SMT
390
0
  6
CONTINUOUS2
 62
     1
100
AcDbLine
 10
0.142
 20
1.0415
 30
0.0
 11
0.015
 21
1.0415
 31
0.0
  0
LINE
  5
15A
100
AcDbEntity
  8
10188XRPL_A_SMT
390
0
  6
CONTINUOUS2
 62
     1
100
AcDbLine
 10
0.142
 20
1.0406
 30
0.0
 11
0.015
 21
1.0406
 31
0.0
  0
LINE
  5
15B
100
AcDbEntity
  8
10188XRPL_A_SMT
390
0
  6
CONTINUOUS2
 62
     1
100
AcDbLine
 10
0.142
 20
1.0397
 30
0.0
 11
0.015
 21
1.0397
 31
0.0
  0
LINE
  5
15C
100
AcDbEntity
  8
10188XRPL_A_SMT
390
0
  6
CONTINUOUS2
 62
     1
100
AcDbLine
 10
0.142
 20
1.0388
 30
0.0
 11
0.015
 21
1.0388
 31
0.0
  0
LINE
  5
15D
100
AcDbEntity
  8
10188XRPL_A_SMT
390
0
  6
CONTINUOUS2
 62
     1
100
AcDbLine
 10
0.142
 20
1.0379
 30
0.0
 11
0.015
 21
1.0379
 31
0.0
  0
LINE
  5
15E
100
AcDbEntity
  8
10188XRPL_A_SMT
390
0
  6
CONTINUOUS2
 62
     1
100
AcDbLine
 10
0.142
 20
1.037
 30
0.0
 11
0.015
 21
1.037
 31
0.0
  0
LINE
  5
15F
100
AcDbEntity
  8
10188XRPL_A_SMT
390
0
  6
CONTINUOUS2
 62
     1
100
AcDbLine
 10
0.142
 20
1.0361
 30
0.0
 11
0.015
 21
1.0361
 31
0.0
  0
LINE
  5
160
100
AcDbEntity
  8
10188XRPL_A_SMT
390
0
  6
CONTINUOUS2
 62
     1
100
AcDbLine
 10
0.142
 20
1.0352
 30
0.0
 11
0.015
 21
1.0352
 31
0.0
  0
LINE
  5
161
100
AcDbEntity
  8
10188XRPL_A_SMT
390
0
  6
CONTINUOUS2
 62
     1
100
AcDbLine
 10
0.142
 20
1.0343
 30
0.0
 11
0.015
 21
1.0343
 31
0.0
  0
LINE
  5
162
100
AcDbEntity
  8
10188XRPL_A_SMT
390
0
  6
CONTINUOUS2
 62
     1
100
AcDbLine
 10
0.142
 20
1.0334
 30
0.0
 11
0.015
 21
1.0334
 31
0.0
  0
LINE
  5
163
100
AcDbEntity
  8
10188XRPL_A_SMT
390
0
  6
CONTINUOUS2
 62
     1
100
AcDbLine
 10
0.142
 20
1.0325
 30
0.0
 11
0.015
 21
1.0325
 31
0.0
  0
LINE
  5
164
100
AcDbEntity
  8
10188XRPL_A_SMT
390
0
  6
CONTINUOUS2
 62
     1
100
AcDbLine
 10
0.142
 20
1.0316
 30
0.0
 11
0.015
 21
1.0316
 31
0.0
  0
LINE
  5
165
100
AcDbEntity
  8
10188XRPL_A_SMT
390
0
  6
CONTINUOUS2
 62
     1
100
AcDbLine
 10
0.142
 20
1.0307
 30
0.0
 11
0.015
 21
1.0307
 31
0.0
  0
LINE
  5
166
100
AcDbEntity
  8
10188XRPL_A_SMT
390
0
  6
CONTINUOUS2
 62
     1
100
AcDbLine
 10
0.142
 20
1.0298
 30
0.0
 11
0.015
 21
1.0298
 31
0.0
  0
LINE
  5
167
100
AcDbEntity
  8
10188XRPL_A_SMT
390
0
  6
CONTINUOUS2
 62
     1
100
AcDbLine
 10
0.142
 20
1.0289
 30
0.0
 11
0.015
 21
1.0289
 31
0.0
  0
LINE
  5
168
100
AcDbEntity
  8
10188XRPL_A_SMT
390
0
  6
CONTINUOUS2
 62
     1
100
AcDbLine
 10
0.142
 20
1.028
 30
0.0
 11
0.015
 21
1.028
 31
0.0
  0
LINE
  5
169
100
AcDbEntity
  8
10188XRPL_A_SMT
390
0
  6
CONTINUOUS2
 62
     1
100
AcDbLine
 10
0.142
 20
1.0271
 30
0.0
 11
0.015
 21
1.0271
 31
0.0
  0
LINE
  5
16A
100
AcDbEntity
  8
10188XRPL_A_SMT
390
0
  6
CONTINUOUS2
 62
     1
100
AcDbLine
 10
0.142
 20
1.0262
 30
0.0
 11
0.015
 21
1.0262
 31
0.0
  0
LINE
  5
16B
100
AcDbEntity
  8
10188XRPL_A_SMT
390
0
  6
CONTINUOUS2
 62
     1
100
AcDbLine
 10
0.142
 20
1.0253
 30
0.0
 11
0.015
 21
1.0253
 31
0.0
  0
LINE
  5
16C
100
AcDbEntity
  8
10188XRPL_A_SMT
390
0
  6
CONTINUOUS2
 62
     1
100
AcDbLine
 10
0.142
 20
1.0244
 30
0.0
 11
0.015
 21
1.0244
 31
0.0
  0
LINE
  5
16D
100
AcDbEntity
  8
10188XRPL_A_SMT
390
0
  6
CONTINUOUS2
 62
     1
100
AcDbLine
 10
0.142
 20
1.0235
 30
0.0
 11
0.015
 21
1.0235
 31
0.0
  0
LINE
  5
16E
100
AcDbEntity
  8
10188XRPL_A_SMT
390
0
  6
CONTINUOUS2
 62
     1
100
AcDbLine
 10
0.142
 20
1.0226
 30
0.0
 11
0.015
 21
1.0226
 31
0.0
  0
LINE
  5
16F
100
AcDbEntity
  8
10188XRPL_A_SMT
390
0
  6
CONTINUOUS2
 62
     1
100
AcDbLine
 10
0.142
 20
1.0217
 30
0.0
 11
0.015
 21
1.0217
 31
0.0
  0
LINE
  5
170
100
AcDbEntity
  8
10188XRPL_A_SMT
390
0
  6
CONTINUOUS2
 62
     1
100
AcDbLine
 10
0.142
 20
1.0208
 30
0.0
 11
0.015
 21
1.0208
 31
0.0
  0
LINE
  5
171
100
AcDbEntity
  8
10188XRPL_A_SMT
390
0
  6
CONTINUOUS2
 62
     1
100
AcDbLine
 10
0.142
 20
1.0199
 30
0.0
 11
0.015
 21
1.0199
 31
0.0
  0
LINE
  5
172
100
AcDbEntity
  8
10188XRPL_A_SMT
390
0
  6
CONTINUOUS2
 62
     1
100
AcDbLine
 10
0.142
 20
1.019
 30
0.0
 11
0.015
 21
1.019
 31
0.0
  0
LINE
  5
173
100
AcDbEntity
  8
10188XRPL_A_SMT
390
0
  6
CONTINUOUS2
 62
     1
100
AcDbLine
 10
0.142
 20
1.0181
 30
0.0
 11
0.015
 21
1.0181
 31
0.0
  0
LINE
  5
174
100
AcDbEntity
  8
10188XRPL_A_SMT
390
0
  6
CONTINUOUS2
 62
     1
100
AcDbLine
 10
0.142
 20
1.0172
 30
0.0
 11
0.015
 21
1.0172
 31
0.0
  0
LINE
  5
175
100
AcDbEntity
  8
10188XRPL_A_SMT
390
0
  6
CONTINUOUS2
 62
     1
100
AcDbLine
 10
0.142
 20
1.0163
 30
0.0
 11
0.015
 21
1.0163
 31
0.0
  0
LINE
  5
176
100
AcDbEntity
  8
10188XRPL_A_SMT
390
0
  6
CONTINUOUS2
 62
     1
100
AcDbLine
 10
0.142
 20
1.0154
 30
0.0
 11
0.015
 21
1.0154
 31
0.0
  0
LINE
  5
177
100
AcDbEntity
  8
10188XRPL_A_SMT
390
0
  6
CONTINUOUS2
 62
     1
100
AcDbLine
 10
0.142
 20
1.0145
 30
0.0
 11
0.015
 21
1.0145
 31
0.0
  0
LINE
  5
178
100
AcDbEntity
  8
10188XRPL_A_SMT
390
0
  6
CONTINUOUS2
 62
     1
100
AcDbLine
 10
0.142
 20
1.0136
 30
0.0
 11
0.015
 21
1.0136
 31
0.0
  0
LINE
  5
179
100
AcDbEntity
  8
10188XRPL_A_SMT
390
0
  6
CONTINUOUS2
 62
     1
100
AcDbLine
 10
0.142
 20
1.0127
 30
0.0
 11
0.015
 21
1.0127
 31
0.0
  0
LINE
  5
17A
100
AcDbEntity
  8
10188XRPL_A_SMT
390
0
  6
CONTINUOUS2
 62
     1
100
AcDbLine
 10
0.142
 20
1.0118
 30
0.0
 11
0.015
 21
1.0118
 31
0.0
  0
LINE
  5
17B
100
AcDbEntity
  8
10188XRPL_A_SMT
390
0
  6
CONTINUOUS2
 62
     1
100
AcDbLine
 10
0.142
 20
1.0109
 30
0.0
 11
0.015
 21
1.0109
 31
0.0
  0
LINE
  5
17C
100
AcDbEntity
  8
10188XRPL_A_SMT
390
0
  6
CONTINUOUS2
 62
     1
100
AcDbLine
 10
0.142
 20
1.01
 30
0.0
 11
0.015
 21
1.01
 31
0.0
  0
LINE
  5
17D
100
AcDbEntity
  8
10188XRPL_A_SMT
390
0
  6
CONTINUOUS2
 62
     1
100
AcDbLine
 10
0.142
 20
1.0091
 30
0.0
 11
0.015
 21
1.0091
 31
0.0
  0
LINE
  5
17E
100
AcDbEntity
  8
10188XRPL_A_SMT
390
0
  6
CONTINUOUS2
 62
     1
100
AcDbLine
 10
0.142
 20
1.0082
 30
0.0
 11
0.015
 21
1.0082
 31
0.0
  0
LINE
  5
17F
100
AcDbEntity
  8
10188XRPL_A_SMT
390
0
  6
CONTINUOUS2
 62
     1
100
AcDbLine
 10
0.142
 20
1.0073
 30
0.0
 11
0.015
 21
1.0073
 31
0.0
  0
LINE
  5
180
100
AcDbEntity
  8
10188XRPL_A_SMT
390
0
  6
CONTINUOUS2
 62
     1
100
AcDbLine
 10
0.142
 20
1.0064
 30
0.0
 11
0.015
 21
1.0064
 31
0.0
  0
LINE
  5
181
100
AcDbEntity
  8
10188XRPL_A_SMT
390
0
  6
CONTINUOUS2
 62
     1
100
AcDbLine
 10
0.142
 20
1.0055
 30
0.0
 11
0.015
 21
1.0055
 31
0.0
  0
LINE
  5
182
100
AcDbEntity
  8
10188XRPL_A_SMT
390
0
  6
CONTINUOUS2
 62
     1
100
AcDbLine
 10
0.142
 20
1.0046
 30
0.0
 11
0.015
 21
1.0046
 31
0.0
  0
LINE
  5
183
100
AcDbEntity
  8
10188XRPL_A_SMT
390
0
  6
CONTINUOUS2
 62
     1
100
AcDbLine
 10
0.142
 20
1.0037
 30
0.0
 11
0.015
 21
1.0037
 31
0.0
  0
LINE
  5
184
100
AcDbEntity
  8
10188XRPL_A_SMT
390
0
  6
CONTINUOUS2
 62
     1
100
AcDbLine
 10
0.142
 20
1.0028
 30
0.0
 11
0.015
 21
1.0028
 31
0.0
  0
LINE
  5
185
100
AcDbEntity
  8
10188XRPL_A_SMT
390
0
  6
CONTINUOUS2
 62
     1
100
AcDbLine
 10
0.142
 20
1.0019
 30
0.0
 11
0.015
 21
1.0019
 31
0.0
  0
LINE
  5
186
100
AcDbEntity
  8
10188XRPL_A_SMT
390
0
  6
CONTINUOUS2
 62
     1
100
AcDbLine
 10
0.142
 20
1.001
 30
0.0
 11
0.015
 21
1.001
 31
0.0
  0
LINE
  5
187
100
AcDbEntity
  8
10188XRPL_A_SMT
390
0
  6
CONTINUOUS2
 62
     1
100
AcDbLine
 10
0.142
 20
1.0001
 30
0.0
 11
0.015
 21
1.0001
 31
0.0
  0
LINE
  5
188
100
AcDbEntity
  8
10188XRPL_A_SMT
390
0
  6
CONTINUOUS2
 62
     1
100
AcDbLine
 10
0.142
 20
0.9992
 30
0.0
 11
0.015
 21
0.9992
 31
0.0
  0
LINE
  5
189
100
AcDbEntity
  8
10188XRPL_A_SMT
390
0
  6
CONTINUOUS2
 62
     1
100
AcDbLine
 10
0.142
 20
0.9983
 30
0.0
 11
0.015
 21
0.9983
 31
0.0
  0
LINE
  5
18A
100
AcDbEntity
  8
10188XRPL_A_SMT
390
0
  6
CONTINUOUS2
 62
     1
100
AcDbLine
 10
4.929
 20
0.927
 30
0.0
 11
4.679
 21
0.927
 31
0.0
  0
LINE
  5
18B
100
AcDbEntity
  8
10188XRPL_A_SMT
390
0
  6
CONTINUOUS2
 62
     1
100
AcDbLine
 10
4.679
 20
0.927
 30
0.0
 11
4.679
 21
0.777
 31
0.0
  0
LINE
  5
18C
100
AcDbEntity
  8
10188XRPL_A_SMT
390
0
  6
CONTINUOUS2
 62
     1
100
AcDbLine
 10
4.929
 20
0.777
 30
0.0
 11
4.679
 21
0.777
 31
0.0
  0
LINE
  5
18D
100
AcDbEntity
  8
10188XRPL_A_SMT
390
0
  6
CONTINUOUS2
 62
     1
100
AcDbLine
 10
4.929
 20
0.927
 30
0.0
 11
4.929
 21
0.777
 31
0.0
  0
LINE
  5
18E
100
AcDbEntity
  8
10188XRPL_A_SMT
390
0
  6
CONTINUOUS2
 62
     1
100
AcDbLine
 10
4.9278
 20
0.927
 30
0.0
 11
4.9278
 21
0.777
 31
0.0
  0
LINE
  5
18F
100
AcDbEntity
  8
10188XRPL_A_SMT
390
0
  6
CONTINUOUS2
 62
     1
100
AcDbLine
 10
4.9269
 20
0.927
 30
0.0
 11
4.9269
 21
0.777
 31
0.0
  0
LINE
  5
190
100
AcDbEntity
  8
10188XRPL_A_SMT
390
0
  6
CONTINUOUS2
 62
     1
100
AcDbLine
 10
4.926
 20
0.927
 30
0.0
 11
4.926
 21
0.777
 31
0.0
  0
LINE
  5
191
100
AcDbEntity
  8
10188XRPL_A_SMT
390
0
  6
CONTINUOUS2
 62
     1
100
AcDbLine
 10
4.9251
 20
0.927
 30
0.0
 11
4.9251
 21
0.777
 31
0.0
  0
LINE
  5
192
100
AcDbEntity
  8
10188XRPL_A_SMT
390
0
  6
CONTINUOUS2
 62
     1
100
AcDbLine
 10
4.9242
 20
0.927
 30
0.0
 11
4.9242
 21
0.777
 31
0.0
  0
LINE
  5
193
100
AcDbEntity
  8
10188XRPL_A_SMT
390
0
  6
CONTINUOUS2
 62
     1
100
AcDbLine
 10
4.9233
 20
0.927
 30
0.0
 11
4.9233
 21
0.777
 31
0.0
  0
LINE
  5
194
100
AcDbEntity
  8
10188XRPL_A_SMT
390
0
  6
CONTINUOUS2
 62
     1
100
AcDbLine
 10
4.9224
 20
0.927
 30
0.0
 11
4.9224
 21
0.777
 31
0.0
  0
LINE
  5
195
100
AcDbEntity
  8
10188XRPL_A_SMT
390
0
  6
CONTINUOUS2
 62
     1
100
AcDbLine
 10
4.9215
 20
0.927
 30
0.0
 11
4.9215
 21
0.777
 31
0.0
  0
LINE
  5
196
100
AcDbEntity
  8
10188XRPL_A_SMT
390
0
  6
CONTINUOUS2
 62
     1
100
AcDbLine
 10
4.9206
 20
0.927
 30
0.0
 11
4.9206
 21
0.777
 31
0.0
  0
LINE
  5
197
100
AcDbEntity
  8
10188XRPL_A_SMT
390
0
  6
CONTINUOUS2
 62
     1
100
AcDbLine
 10
4.9197
 20
0.927
 30
0.0
 11
4.9197
 21
0.777
 31
0.0
  0
LINE
  5
198
100
AcDbEntity
  8
10188XRPL_A_SMT
390
0
  6
CONTINUOUS2
 62
     1
100
AcDbLine
 10
4.9188
 20
0.927
 30
0.0
 11
4.9188
 21
0.777
 31
0.0
  0
LINE
  5
199
100
AcDbEntity
  8
10188XRPL_A_SMT
390
0
  6
CONTINUOUS2
 62
     1
100
AcDbLine
 10
4.9179
 20
0.927
 30
0.0
 11
4.9179
 21
0.777
 31
0.0
  0
LINE
  5
19A
100
AcDbEntity
  8
10188XRPL_A_SMT
390
0
  6
CONTINUOUS2
 62
     1
100
AcDbLine
 10
4.917
 20
0.927
 30
0.0
 11
4.917
 21
0.777
 31
0.0
  0
LINE
  5
19B
100
AcDbEntity
  8
10188XRPL_A_SMT
390
0
  6
CONTINUOUS2
 62
     1
100
AcDbLine
 10
4.9161
 20
0.927
 30
0.0
 11
4.9161
 21
0.777
 31
0.0
  0
LINE
  5
19C
100
AcDbEntity
  8
10188XRPL_A_SMT
390
0
  6
CONTINUOUS2
 62
     1
100
AcDbLine
 10
4.9152
 20
0.927
 30
0.0
 11
4.9152
 21
0.777
 31
0.0
  0
LINE
  5
19D
100
AcDbEntity
  8
10188XRPL_A_SMT
390
0
  6
CONTINUOUS2
 62
     1
100
AcDbLine
 10
4.9143
 20
0.927
 30
0.0
 11
4.9143
 21
0.777
 31
0.0
  0
LINE
  5
19E
100
AcDbEntity
  8
10188XRPL_A_SMT
390
0
  6
CONTINUOUS2
 62
     1
100
AcDbLine
 10
4.9134
 20
0.927
 30
0.0
 11
4.9134
 21
0.777
 31
0.0
  0
LINE
  5
19F
100
AcDbEntity
  8
10188XRPL_A_SMT
390
0
  6
CONTINUOUS2
 62
     1
100
AcDbLine
 10
4.9125
 20
0.927
 30
0.0
 11
4.9125
 21
0.777
 31
0.0
  0
LINE
  5
1A0
100
AcDbEntity
  8
10188XRPL_A_SMT
390
0
  6
CONTINUOUS2
 62
     1
100
AcDbLine
 10
4.9116
 20
0.927
 30
0.0
 11
4.9116
 21
0.777
 31
0.0
  0
LINE
  5
1A1
100
AcDbEntity
  8
10188XRPL_A_SMT
390
0
  6
CONTINUOUS2
 62
     1
100
AcDbLine
 10
4.9107
 20
0.927
 30
0.0
 11
4.9107
 21
0.777
 31
0.0
  0
LINE
  5
1A2
100
AcDbEntity
  8
10188XRPL_A_SMT
390
0
  6
CONTINUOUS2
 62
     1
100
AcDbLine
 10
4.9098
 20
0.927
 30
0.0
 11
4.9098
 21
0.777
 31
0.0
  0
LINE
  5
1A3
100
AcDbEntity
  8
10188XRPL_A_SMT
390
0
  6
CONTINUOUS2
 62
     1
100
AcDbLine
 10
4.9089
 20
0.927
 30
0.0
 11
4.9089
 21
0.777
 31
0.0
  0
LINE
  5
1A4
100
AcDbEntity
  8
10188XRPL_A_SMT
390
0
  6
CONTINUOUS2
 62
     1
100
AcDbLine
 10
4.908
 20
0.927
 30
0.0
 11
4.908
 21
0.777
 31
0.0
  0
LINE
  5
1A5
100
AcDbEntity
  8
10188XRPL_A_SMT
390
0
  6
CONTINUOUS2
 62
     1
100
AcDbLine
 10
4.9071
 20
0.927
 30
0.0
 11
4.9071
 21
0.777
 31
0.0
  0
LINE
  5
1A6
100
AcDbEntity
  8
10188XRPL_A_SMT
390
0
  6
CONTINUOUS2
 62
     1
100
AcDbLine
 10
4.9062
 20
0.927
 30
0.0
 11
4.9062
 21
0.777
 31
0.0
  0
LINE
  5
1A7
100
AcDbEntity
  8
10188XRPL_A_SMT
390
0
  6
CONTINUOUS2
 62
     1
100
AcDbLine
 10
4.9053
 20
0.927
 30
0.0
 11
4.9053
 21
0.777
 31
0.0
  0
LINE
  5
1A8
100
AcDbEntity
  8
10188XRPL_A_SMT
390
0
  6
CONTINUOUS2
 62
     1
100
AcDbLine
 10
4.9044
 20
0.927
 30
0.0
 11
4.9044
 21
0.777
 31
0.0
  0
LINE
  5
1A9
100
AcDbEntity
  8
10188XRPL_A_SMT
390
0
  6
CONTINUOUS2
 62
     1
100
AcDbLine
 10
4.9035
 20
0.927
 30
0.0
 11
4.9035
 21
0.777
 31
0.0
  0
LINE
  5
1AA
100
AcDbEntity
  8
10188XRPL_A_SMT
390
0
  6
CONTINUOUS2
 62
     1
100
AcDbLine
 10
4.9026
 20
0.927
 30
0.0
 11
4.9026
 21
0.777
 31
0.0
  0
LINE
  5
1AB
100
AcDbEntity
  8
10188XRPL_A_SMT
390
0
  6
CONTINUOUS2
 62
     1
100
AcDbLine
 10
4.9017
 20
0.927
 30
0.0
 11
4.9017
 21
0.777
 31
0.0
  0
LINE
  5
1AC
100
AcDbEntity
  8
10188XRPL_A_SMT
390
0
  6
CONTINUOUS2
 62
     1
100
AcDbLine
 10
4.9008
 20
0.927
 30
0.0
 11
4.9008
 21
0.777
 31
0.0
  0
LINE
  5
1AD
100
AcDbEntity
  8
10188XRPL_A_SMT
390
0
  6
CONTINUOUS2
 62
     1
100
AcDbLine
 10
4.8999
 20
0.927
 30
0.0
 11
4.8999
 21
0.777
 31
0.0
  0
LINE
  5
1AE
100
AcDbEntity
  8
10188XRPL_A_SMT
390
0
  6
CONTINUOUS2
 62
     1
100
AcDbLine
 10
4.899
 20
0.927
 30
0.0
 11
4.899
 21
0.777
 31
0.0
  0
LINE
  5
1AF
100
AcDbEntity
  8
10188XRPL_A_SMT
390
0
  6
CONTINUOUS2
 62
     1
100
AcDbLine
 10
4.8981
 20
0.927
 30
0.0
 11
4.8981
 21
0.777
 31
0.0
  0
LINE
  5
1B0
100
AcDbEntity
  8
10188XRPL_A_SMT
390
0
  6
CONTINUOUS2
 62
     1
100
AcDbLine
 10
4.8972
 20
0.927
 30
0.0
 11
4.8972
 21
0.777
 31
0.0
  0
LINE
  5
1B1
100
AcDbEntity
  8
10188XRPL_A_SMT
390
0
  6
CONTINUOUS2
 62
     1
100
AcDbLine
 10
4.8963
 20
0.927
 30
0.0
 11
4.8963
 21
0.777
 31
0.0
  0
LINE
  5
1B2
100
AcDbEntity
  8
10188XRPL_A_SMT
390
0
  6
CONTINUOUS2
 62
     1
100
AcDbLine
 10
4.8954
 20
0.927
 30
0.0
 11
4.8954
 21
0.777
 31
0.0
  0
LINE
  5
1B3
100
AcDbEntity
  8
10188XRPL_A_SMT
390
0
  6
CONTINUOUS2
 62
     1
100
AcDbLine
 10
4.8945
 20
0.927
 30
0.0
 11
4.8945
 21
0.777
 31
0.0
  0
LINE
  5
1B4
100
AcDbEntity
  8
10188XRPL_A_SMT
390
0
  6
CONTINUOUS2
 62
     1
100
AcDbLine
 10
4.8936
 20
0.927
 30
0.0
 11
4.8936
 21
0.777
 31
0.0
  0
LINE
  5
1B5
100
AcDbEntity
  8
10188XRPL_A_SMT
390
0
  6
CONTINUOUS2
 62
     1
100
AcDbLine
 10
4.8927
 20
0.927
 30
0.0
 11
4.8927
 21
0.777
 31
0.0
  0
LINE
  5
1B6
100
AcDbEntity
  8
10188XRPL_A_SMT
390
0
  6
CONTINUOUS2
 62
     1
100
AcDbLine
 10
4.8918
 20
0.927
 30
0.0
 11
4.8918
 21
0.777
 31
0.0
  0
LINE
  5
1B7
100
AcDbEntity
  8
10188XRPL_A_SMT
390
0
  6
CONTINUOUS2
 62
     1
100
AcDbLine
 10
4.8909
 20
0.927
 30
0.0
 11
4.8909
 21
0.777
 31
0.0
  0
LINE
  5
1B8
100
AcDbEntity
  8
10188XRPL_A_SMT
390
0
  6
CONTINUOUS2
 62
     1
100
AcDbLine
 10
4.89
 20
0.927
 30
0.0
 11
4.89
 21
0.777
 31
0.0
  0
LINE
  5
1B9
100
AcDbEntity
  8
10188XRPL_A_SMT
390
0
  6
CONTINUOUS2
 62
     1
100
AcDbLine
 10
4.8891
 20
0.927
 30
0.0
 11
4.8891
 21
0.777
 31
0.0
  0
LINE
  5
1BA
100
AcDbEntity
  8
10188XRPL_A_SMT
390
0
  6
CONTINUOUS2
 62
     1
100
AcDbLine
 10
4.8882
 20
0.927
 30
0.0
 11
4.8882
 21
0.777
 31
0.0
  0
LINE
  5
1BB
100
AcDbEntity
  8
10188XRPL_A_SMT
390
0
  6
CONTINUOUS2
 62
     1
100
AcDbLine
 10
4.8873
 20
0.927
 30
0.0
 11
4.8873
 21
0.777
 31
0.0
  0
LINE
  5
1BC
100
AcDbEntity
  8
10188XRPL_A_SMT
390
0
  6
CONTINUOUS2
 62
     1
100
AcDbLine
 10
4.8864
 20
0.927
 30
0.0
 11
4.8864
 21
0.777
 31
0.0
  0
LINE
  5
1BD
100
AcDbEntity
  8
10188XRPL_A_SMT
390
0
  6
CONTINUOUS2
 62
     1
100
AcDbLine
 10
4.8855
 20
0.927
 30
0.0
 11
4.8855
 21
0.777
 31
0.0
  0
LINE
  5
1BE
100
AcDbEntity
  8
10188XRPL_A_SMT
390
0
  6
CONTINUOUS2
 62
     1
100
AcDbLine
 10
4.8846
 20
0.927
 30
0.0
 11
4.8846
 21
0.777
 31
0.0
  0
LINE
  5
1BF
100
AcDbEntity
  8
10188XRPL_A_SMT
390
0
  6
CONTINUOUS2
 62
     1
100
AcDbLine
 10
4.8837
 20
0.927
 30
0.0
 11
4.8837
 21
0.777
 31
0.0
  0
LINE
  5
1C0
100
AcDbEntity
  8
10188XRPL_A_SMT
390
0
  6
CONTINUOUS2
 62
     1
100
AcDbLine
 10
4.8828
 20
0.927
 30
0.0
 11
4.8828
 21
0.777
 31
0.0
  0
LINE
  5
1C1
100
AcDbEntity
  8
10188XRPL_A_SMT
390
0
  6
CONTINUOUS2
 62
     1
100
AcDbLine
 10
4.8819
 20
0.927
 30
0.0
 11
4.8819
 21
0.777
 31
0.0
  0
LINE
  5
1C2
100
AcDbEntity
  8
10188XRPL_A_SMT
390
0
  6
CONTINUOUS2
 62
     1
100
AcDbLine
 10
4.881
 20
0.927
 30
0.0
 11
4.881
 21
0.777
 31
0.0
  0
LINE
  5
1C3
100
AcDbEntity
  8
10188XRPL_A_SMT
390
0
  6
CONTINUOUS2
 62
     1
100
AcDbLine
 10
4.8801
 20
0.927
 30
0.0
 11
4.8801
 21
0.777
 31
0.0
  0
LINE
  5
1C4
100
AcDbEntity
  8
10188XRPL_A_SMT
390
0
  6
CONTINUOUS2
 62
     1
100
AcDbLine
 10
4.8792
 20
0.927
 30
0.0
 11
4.8792
 21
0.777
 31
0.0
  0
LINE
  5
1C5
100
AcDbEntity
  8
10188XRPL_A_SMT
390
0
  6
CONTINUOUS2
 62
     1
100
AcDbLine
 10
4.8783
 20
0.927
 30
0.0
 11
4.8783
 21
0.777
 31
0.0
  0
LINE
  5
1C6
100
AcDbEntity
  8
10188XRPL_A_SMT
390
0
  6
CONTINUOUS2
 62
     1
100
AcDbLine
 10
4.8774
 20
0.927
 30
0.0
 11
4.8774
 21
0.777
 31
0.0
  0
LINE
  5
1C7
100
AcDbEntity
  8
10188XRPL_A_SMT
390
0
  6
CONTINUOUS2
 62
     1
100
AcDbLine
 10
4.8765
 20
0.927
 30
0.0
 11
4.8765
 21
0.777
 31
0.0
  0
LINE
  5
1C8
100
AcDbEntity
  8
10188XRPL_A_SMT
390
0
  6
CONTINUOUS2
 62
     1
100
AcDbLine
 10
4.8756
 20
0.927
 30
0.0
 11
4.8756
 21
0.777
 31
0.0
  0
LINE
  5
1C9
100
AcDbEntity
  8
10188XRPL_A_SMT
390
0
  6
CONTINUOUS2
 62
     1
100
AcDbLine
 10
4.8747
 20
0.927
 30
0.0
 11
4.8747
 21
0.777
 31
0.0
  0
LINE
  5
1CA
100
AcDbEntity
  8
10188XRPL_A_SMT
390
0
  6
CONTINUOUS2
 62
     1
100
AcDbLine
 10
4.8738
 20
0.927
 30
0.0
 11
4.8738
 21
0.777
 31
0.0
  0
LINE
  5
1CB
100
AcDbEntity
  8
10188XRPL_A_SMT
390
0
  6
CONTINUOUS2
 62
     1
100
AcDbLine
 10
4.8729
 20
0.927
 30
0.0
 11
4.8729
 21
0.777
 31
0.0
  0
LINE
  5
1CC
100
AcDbEntity
  8
10188XRPL_A_SMT
390
0
  6
CONTINUOUS2
 62
     1
100
AcDbLine
 10
4.872
 20
0.927
 30
0.0
 11
4.872
 21
0.777
 31
0.0
  0
LINE
  5
1CD
100
AcDbEntity
  8
10188XRPL_A_SMT
390
0
  6
CONTINUOUS2
 62
     1
100
AcDbLine
 10
4.8711
 20
0.927
 30
0.0
 11
4.8711
 21
0.777
 31
0.0
  0
LINE
  5
1CE
100
AcDbEntity
  8
10188XRPL_A_SMT
390
0
  6
CONTINUOUS2
 62
     1
100
AcDbLine
 10
4.8702
 20
0.927
 30
0.0
 11
4.8702
 21
0.777
 31
0.0
  0
LINE
  5
1CF
100
AcDbEntity
  8
10188XRPL_A_SMT
390
0
  6
CONTINUOUS2
 62
     1
100
AcDbLine
 10
4.8693
 20
0.927
 30
0.0
 11
4.8693
 21
0.777
 31
0.0
  0
LINE
  5
1D0
100
AcDbEntity
  8
10188XRPL_A_SMT
390
0
  6
CONTINUOUS2
 62
     1
100
AcDbLine
 10
4.8684
 20
0.927
 30
0.0
 11
4.8684
 21
0.777
 31
0.0
  0
LINE
  5
1D1
100
AcDbEntity
  8
10188XRPL_A_SMT
390
0
  6
CONTINUOUS2
 62
     1
100
AcDbLine
 10
4.8675
 20
0.927
 30
0.0
 11
4.8675
 21
0.777
 31
0.0
  0
LINE
  5
1D2
100
AcDbEntity
  8
10188XRPL_A_SMT
390
0
  6
CONTINUOUS2
 62
     1
100
AcDbLine
 10
4.8666
 20
0.927
 30
0.0
 11
4.8666
 21
0.777
 31
0.0
  0
LINE
  5
1D3
100
AcDbEntity
  8
10188XRPL_A_SMT
390
0
  6
CONTINUOUS2
 62
     1
100
AcDbLine
 10
4.8657
 20
0.927
 30
0.0
 11
4.8657
 21
0.777
 31
0.0
  0
LINE
  5
1D4
100
AcDbEntity
  8
10188XRPL_A_SMT
390
0
  6
CONTINUOUS2
 62
     1
100
AcDbLine
 10
4.8648
 20
0.927
 30
0.0
 11
4.8648
 21
0.777
 31
0.0
  0
LINE
  5
1D5
100
AcDbEntity
  8
10188XRPL_A_SMT
390
0
  6
CONTINUOUS2
 62
     1
100
AcDbLine
 10
4.8639
 20
0.927
 30
0.0
 11
4.8639
 21
0.777
 31
0.0
  0
LINE
  5
1D6
100
AcDbEntity
  8
10188XRPL_A_SMT
390
0
  6
CONTINUOUS2
 62
     1
100
AcDbLine
 10
4.863
 20
0.927
 30
0.0
 11
4.863
 21
0.777
 31
0.0
  0
LINE
  5
1D7
100
AcDbEntity
  8
10188XRPL_A_SMT
390
0
  6
CONTINUOUS2
 62
     1
100
AcDbLine
 10
4.8621
 20
0.927
 30
0.0
 11
4.8621
 21
0.777
 31
0.0
  0
LINE
  5
1D8
100
AcDbEntity
  8
10188XRPL_A_SMT
390
0
  6
CONTINUOUS2
 62
     1
100
AcDbLine
 10
4.8612
 20
0.927
 30
0.0
 11
4.8612
 21
0.777
 31
0.0
  0
LINE
  5
1D9
100
AcDbEntity
  8
10188XRPL_A_SMT
390
0
  6
CONTINUOUS2
 62
     1
100
AcDbLine
 10
4.8603
 20
0.927
 30
0.0
 11
4.8603
 21
0.777
 31
0.0
  0
LINE
  5
1DA
100
AcDbEntity
  8
10188XRPL_A_SMT
390
0
  6
CONTINUOUS2
 62
     1
100
AcDbLine
 10
4.8594
 20
0.927
 30
0.0
 11
4.8594
 21
0.777
 31
0.0
  0
LINE
  5
1DB
100
AcDbEntity
  8
10188XRPL_A_SMT
390
0
  6
CONTINUOUS2
 62
     1
100
AcDbLine
 10
4.8585
 20
0.927
 30
0.0
 11
4.8585
 21
0.777
 31
0.0
  0
LINE
  5
1DC
100
AcDbEntity
  8
10188XRPL_A_SMT
390
0
  6
CONTINUOUS2
 62
     1
100
AcDbLine
 10
4.8576
 20
0.927
 30
0.0
 11
4.8576
 21
0.777
 31
0.0
  0
LINE
  5
1DD
100
AcDbEntity
  8
10188XRPL_A_SMT
390
0
  6
CONTINUOUS2
 62
     1
100
AcDbLine
 10
4.8567
 20
0.927
 30
0.0
 11
4.8567
 21
0.777
 31
0.0
  0
LINE
  5
1DE
100
AcDbEntity
  8
10188XRPL_A_SMT
390
0
  6
CONTINUOUS2
 62
     1
100
AcDbLine
 10
4.8558
 20
0.927
 30
0.0
 11
4.8558
 21
0.777
 31
0.0
  0
LINE
  5
1DF
100
AcDbEntity
  8
10188XRPL_A_SMT
390
0
  6
CONTINUOUS2
 62
     1
100
AcDbLine
 10
4.8549
 20
0.927
 30
0.0
 11
4.8549
 21
0.777
 31
0.0
  0
LINE
  5
1E0
100
AcDbEntity
  8
10188XRPL_A_SMT
390
0
  6
CONTINUOUS2
 62
     1
100
AcDbLine
 10
4.854
 20
0.927
 30
0.0
 11
4.854
 21
0.777
 31
0.0
  0
LINE
  5
1E1
100
AcDbEntity
  8
10188XRPL_A_SMT
390
0
  6
CONTINUOUS2
 62
     1
100
AcDbLine
 10
4.8531
 20
0.927
 30
0.0
 11
4.8531
 21
0.777
 31
0.0
  0
LINE
  5
1E2
100
AcDbEntity
  8
10188XRPL_A_SMT
390
0
  6
CONTINUOUS2
 62
     1
100
AcDbLine
 10
4.8522
 20
0.927
 30
0.0
 11
4.8522
 21
0.777
 31
0.0
  0
LINE
  5
1E3
100
AcDbEntity
  8
10188XRPL_A_SMT
390
0
  6
CONTINUOUS2
 62
     1
100
AcDbLine
 10
4.8513
 20
0.927
 30
0.0
 11
4.8513
 21
0.777
 31
0.0
  0
LINE
  5
1E4
100
AcDbEntity
  8
10188XRPL_A_SMT
390
0
  6
CONTINUOUS2
 62
     1
100
AcDbLine
 10
4.8504
 20
0.927
 30
0.0
 11
4.8504
 21
0.777
 31
0.0
  0
LINE
  5
1E5
100
AcDbEntity
  8
10188XRPL_A_SMT
390
0
  6
CONTINUOUS2
 62
     1
100
AcDbLine
 10
4.8495
 20
0.927
 30
0.0
 11
4.8495
 21
0.777
 31
0.0
  0
LINE
  5
1E6
100
AcDbEntity
  8
10188XRPL_A_SMT
390
0
  6
CONTINUOUS2
 62
     1
100
AcDbLine
 10
4.8486
 20
0.927
 30
0.0
 11
4.8486
 21
0.777
 31
0.0
  0
LINE
  5
1E7
100
AcDbEntity
  8
10188XRPL_A_SMT
390
0
  6
CONTINUOUS2
 62
     1
100
AcDbLine
 10
4.8477
 20
0.927
 30
0.0
 11
4.8477
 21
0.777
 31
0.0
  0
LINE
  5
1E8
100
AcDbEntity
  8
10188XRPL_A_SMT
390
0
  6
CONTINUOUS2
 62
     1
100
AcDbLine
 10
4.8468
 20
0.927
 30
0.0
 11
4.8468
 21
0.777
 31
0.0
  0
LINE
  5
1E9
100
AcDbEntity
  8
10188XRPL_A_SMT
390
0
  6
CONTINUOUS2
 62
     1
100
AcDbLine
 10
4.8459
 20
0.927
 30
0.0
 11
4.8459
 21
0.777
 31
0.0
  0
LINE
  5
1EA
100
AcDbEntity
  8
10188XRPL_A_SMT
390
0
  6
CONTINUOUS2
 62
     1
100
AcDbLine
 10
4.845
 20
0.927
 30
0.0
 11
4.845
 21
0.777
 31
0.0
  0
LINE
  5
1EB
100
AcDbEntity
  8
10188XRPL_A_SMT
390
0
  6
CONTINUOUS2
 62
     1
100
AcDbLine
 10
4.8441
 20
0.927
 30
0.0
 11
4.8441
 21
0.777
 31
0.0
  0
LINE
  5
1EC
100
AcDbEntity
  8
10188XRPL_A_SMT
390
0
  6
CONTINUOUS2
 62
     1
100
AcDbLine
 10
4.8432
 20
0.927
 30
0.0
 11
4.8432
 21
0.777
 31
0.0
  0
LINE
  5
1ED
100
AcDbEntity
  8
10188XRPL_A_SMT
390
0
  6
CONTINUOUS2
 62
     1
100
AcDbLine
 10
4.8423
 20
0.927
 30
0.0
 11
4.8423
 21
0.777
 31
0.0
  0
LINE
  5
1EE
100
AcDbEntity
  8
10188XRPL_A_SMT
390
0
  6
CONTINUOUS2
 62
     1
100
AcDbLine
 10
4.8414
 20
0.927
 30
0.0
 11
4.8414
 21
0.777
 31
0.0
  0
LINE
  5
1EF
100
AcDbEntity
  8
10188XRPL_A_SMT
390
0
  6
CONTINUOUS2
 62
     1
100
AcDbLine
 10
4.8405
 20
0.927
 30
0.0
 11
4.8405
 21
0.777
 31
0.0
  0
LINE
  5
1F0
100
AcDbEntity
  8
10188XRPL_A_SMT
390
0
  6
CONTINUOUS2
 62
     1
100
AcDbLine
 10
4.8396
 20
0.927
 30
0.0
 11
4.8396
 21
0.777
 31
0.0
  0
LINE
  5
1F1
100
AcDbEntity
  8
10188XRPL_A_SMT
390
0
  6
CONTINUOUS2
 62
     1
100
AcDbLine
 10
4.8387
 20
0.927
 30
0.0
 11
4.8387
 21
0.777
 31
0.0
  0
LINE
  5
1F2
100
AcDbEntity
  8
10188XRPL_A_SMT
390
0
  6
CONTINUOUS2
 62
     1
100
AcDbLine
 10
4.8378
 20
0.927
 30
0.0
 11
4.8378
 21
0.777
 31
0.0
  0
LINE
  5
1F3
100
AcDbEntity
  8
10188XRPL_A_SMT
390
0
  6
CONTINUOUS2
 62
     1
100
AcDbLine
 10
4.8369
 20
0.927
 30
0.0
 11
4.8369
 21
0.777
 31
0.0
  0
LINE
  5
1F4
100
AcDbEntity
  8
10188XRPL_A_SMT
390
0
  6
CONTINUOUS2
 62
     1
100
AcDbLine
 10
4.836
 20
0.927
 30
0.0
 11
4.836
 21
0.777
 31
0.0
  0
LINE
  5
1F5
100
AcDbEntity
  8
10188XRPL_A_SMT
390
0
  6
CONTINUOUS2
 62
     1
100
AcDbLine
 10
4.8351
 20
0.927
 30
0.0
 11
4.8351
 21
0.777
 31
0.0
  0
LINE
  5
1F6
100
AcDbEntity
  8
10188XRPL_A_SMT
390
0
  6
CONTINUOUS2
 62
     1
100
AcDbLine
 10
4.8342
 20
0.927
 30
0.0
 11
4.8342
 21
0.777
 31
0.0
  0
LINE
  5
1F7
100
AcDbEntity
  8
10188XRPL_A_SMT
390
0
  6
CONTINUOUS2
 62
     1
100
AcDbLine
 10
4.8333
 20
0.927
 30
0.0
 11
4.8333
 21
0.777
 31
0.0
  0
LINE
  5
1F8
100
AcDbEntity
  8
10188XRPL_A_SMT
390
0
  6
CONTINUOUS2
 62
     1
100
AcDbLine
 10
4.8324
 20
0.927
 30
0.0
 11
4.8324
 21
0.777
 31
0.0
  0
LINE
  5
1F9
100
AcDbEntity
  8
10188XRPL_A_SMT
390
0
  6
CONTINUOUS2
 62
     1
100
AcDbLine
 10
4.8315
 20
0.927
 30
0.0
 11
4.8315
 21
0.777
 31
0.0
  0
LINE
  5
1FA
100
AcDbEntity
  8
10188XRPL_A_SMT
390
0
  6
CONTINUOUS2
 62
     1
100
AcDbLine
 10
4.8306
 20
0.927
 30
0.0
 11
4.8306
 21
0.777
 31
0.0
  0
LINE
  5
1FB
100
AcDbEntity
  8
10188XRPL_A_SMT
390
0
  6
CONTINUOUS2
 62
     1
100
AcDbLine
 10
4.8297
 20
0.927
 30
0.0
 11
4.8297
 21
0.777
 31
0.0
  0
LINE
  5
1FC
100
AcDbEntity
  8
10188XRPL_A_SMT
390
0
  6
CONTINUOUS2
 62
     1
100
AcDbLine
 10
4.8288
 20
0.927
 30
0.0
 11
4.8288
 21
0.777
 31
0.0
  0
LINE
  5
1FD
100
AcDbEntity
  8
10188XRPL_A_SMT
390
0
  6
CONTINUOUS2
 62
     1
100
AcDbLine
 10
4.8279
 20
0.927
 30
0.0
 11
4.8279
 21
0.777
 31
0.0
  0
LINE
  5
1FE
100
AcDbEntity
  8
10188XRPL_A_SMT
390
0
  6
CONTINUOUS2
 62
     1
100
AcDbLine
 10
4.827
 20
0.927
 30
0.0
 11
4.827
 21
0.777
 31
0.0
  0
LINE
  5
1FF
100
AcDbEntity
  8
10188XRPL_A_SMT
390
0
  6
CONTINUOUS2
 62
     1
100
AcDbLine
 10
4.8261
 20
0.927
 30
0.0
 11
4.8261
 21
0.777
 31
0.0
  0
LINE
  5
200
100
AcDbEntity
  8
10188XRPL_A_SMT
390
0
  6
CONTINUOUS2
 62
     1
100
AcDbLine
 10
4.8252
 20
0.927
 30
0.0
 11
4.8252
 21
0.777
 31
0.0
  0
LINE
  5
201
100
AcDbEntity
  8
10188XRPL_A_SMT
390
0
  6
CONTINUOUS2
 62
     1
100
AcDbLine
 10
4.8243
 20
0.927
 30
0.0
 11
4.8243
 21
0.777
 31
0.0
  0
LINE
  5
202
100
AcDbEntity
  8
10188XRPL_A_SMT
390
0
  6
CONTINUOUS2
 62
     1
100
AcDbLine
 10
4.8234
 20
0.927
 30
0.0
 11
4.8234
 21
0.777
 31
0.0
  0
LINE
  5
203
100
AcDbEntity
  8
10188XRPL_A_SMT
390
0
  6
CONTINUOUS2
 62
     1
100
AcDbLine
 10
4.8225
 20
0.927
 30
0.0
 11
4.8225
 21
0.777
 31
0.0
  0
LINE
  5
204
100
AcDbEntity
  8
10188XRPL_A_SMT
390
0
  6
CONTINUOUS2
 62
     1
100
AcDbLine
 10
4.8216
 20
0.927
 30
0.0
 11
4.8216
 21
0.777
 31
0.0
  0
LINE
  5
205
100
AcDbEntity
  8
10188XRPL_A_SMT
390
0
  6
CONTINUOUS2
 62
     1
100
AcDbLine
 10
4.8207
 20
0.927
 30
0.0
 11
4.8207
 21
0.777
 31
0.0
  0
LINE
  5
206
100
AcDbEntity
  8
10188XRPL_A_SMT
390
0
  6
CONTINUOUS2
 62
     1
100
AcDbLine
 10
4.8198
 20
0.927
 30
0.0
 11
4.8198
 21
0.777
 31
0.0
  0
LINE
  5
207
100
AcDbEntity
  8
10188XRPL_A_SMT
390
0
  6
CONTINUOUS2
 62
     1
100
AcDbLine
 10
4.8189
 20
0.927
 30
0.0
 11
4.8189
 21
0.777
 31
0.0
  0
LINE
  5
208
100
AcDbEntity
  8
10188XRPL_A_SMT
390
0
  6
CONTINUOUS2
 62
     1
100
AcDbLine
 10
4.818
 20
0.927
 30
0.0
 11
4.818
 21
0.777
 31
0.0
  0
LINE
  5
209
100
AcDbEntity
  8
10188XRPL_A_SMT
390
0
  6
CONTINUOUS2
 62
     1
100
AcDbLine
 10
4.8171
 20
0.927
 30
0.0
 11
4.8171
 21
0.777
 31
0.0
  0
LINE
  5
20A
100
AcDbEntity
  8
10188XRPL_A_SMT
390
0
  6
CONTINUOUS2
 62
     1
100
AcDbLine
 10
4.8162
 20
0.927
 30
0.0
 11
4.8162
 21
0.777
 31
0.0
  0
LINE
  5
20B
100
AcDbEntity
  8
10188XRPL_A_SMT
390
0
  6
CONTINUOUS2
 62
     1
100
AcDbLine
 10
4.8153
 20
0.927
 30
0.0
 11
4.8153
 21
0.777
 31
0.0
  0
LINE
  5
20C
100
AcDbEntity
  8
10188XRPL_A_SMT
390
0
  6
CONTINUOUS2
 62
     1
100
AcDbLine
 10
4.8144
 20
0.927
 30
0.0
 11
4.8144
 21
0.777
 31
0.0
  0
LINE
  5
20D
100
AcDbEntity
  8
10188XRPL_A_SMT
390
0
  6
CONTINUOUS2
 62
     1
100
AcDbLine
 10
4.8135
 20
0.927
 30
0.0
 11
4.8135
 21
0.777
 31
0.0
  0
LINE
  5
20E
100
AcDbEntity
  8
10188XRPL_A_SMT
390
0
  6
CONTINUOUS2
 62
     1
100
AcDbLine
 10
4.8126
 20
0.927
 30
0.0
 11
4.8126
 21
0.777
 31
0.0
  0
LINE
  5
20F
100
AcDbEntity
  8
10188XRPL_A_SMT
390
0
  6
CONTINUOUS2
 62
     1
100
AcDbLine
 10
4.8117
 20
0.927
 30
0.0
 11
4.8117
 21
0.777
 31
0.0
  0
LINE
  5
210
100
AcDbEntity
  8
10188XRPL_A_SMT
390
0
  6
CONTINUOUS2
 62
     1
100
AcDbLine
 10
4.8108
 20
0.927
 30
0.0
 11
4.8108
 21
0.777
 31
0.0
  0
LINE
  5
211
100
AcDbEntity
  8
10188XRPL_A_SMT
390
0
  6
CONTINUOUS2
 62
     1
100
AcDbLine
 10
4.8099
 20
0.927
 30
0.0
 11
4.8099
 21
0.777
 31
0.0
  0
LINE
  5
212
100
AcDbEntity
  8
10188XRPL_A_SMT
390
0
  6
CONTINUOUS2
 62
     1
100
AcDbLine
 10
4.809
 20
0.927
 30
0.0
 11
4.809
 21
0.777
 31
0.0
  0
LINE
  5
213
100
AcDbEntity
  8
10188XRPL_A_SMT
390
0
  6
CONTINUOUS2
 62
     1
100
AcDbLine
 10
4.8081
 20
0.927
 30
0.0
 11
4.8081
 21
0.777
 31
0.0
  0
LINE
  5
214
100
AcDbEntity
  8
10188XRPL_A_SMT
390
0
  6
CONTINUOUS2
 62
     1
100
AcDbLine
 10
4.8072
 20
0.927
 30
0.0
 11
4.8072
 21
0.777
 31
0.0
  0
LINE
  5
215
100
AcDbEntity
  8
10188XRPL_A_SMT
390
0
  6
CONTINUOUS2
 62
     1
100
AcDbLine
 10
4.8063
 20
0.927
 30
0.0
 11
4.8063
 21
0.777
 31
0.0
  0
LINE
  5
216
100
AcDbEntity
  8
10188XRPL_A_SMT
390
0
  6
CONTINUOUS2
 62
     1
100
AcDbLine
 10
4.8054
 20
0.927
 30
0.0
 11
4.8054
 21
0.777
 31
0.0
  0
LINE
  5
217
100
AcDbEntity
  8
10188XRPL_A_SMT
390
0
  6
CONTINUOUS2
 62
     1
100
AcDbLine
 10
4.8045
 20
0.927
 30
0.0
 11
4.8045
 21
0.777
 31
0.0
  0
LINE
  5
218
100
AcDbEntity
  8
10188XRPL_A_SMT
390
0
  6
CONTINUOUS2
 62
     1
100
AcDbLine
 10
4.8036
 20
0.927
 30
0.0
 11
4.8036
 21
0.777
 31
0.0
  0
LINE
  5
219
100
AcDbEntity
  8
10188XRPL_A_SMT
390
0
  6
CONTINUOUS2
 62
     1
100
AcDbLine
 10
4.8027
 20
0.927
 30
0.0
 11
4.8027
 21
0.777
 31
0.0
  0
LINE
  5
21A
100
AcDbEntity
  8
10188XRPL_A_SMT
390
0
  6
CONTINUOUS2
 62
     1
100
AcDbLine
 10
4.8018
 20
0.927
 30
0.0
 11
4.8018
 21
0.777
 31
0.0
  0
LINE
  5
21B
100
AcDbEntity
  8
10188XRPL_A_SMT
390
0
  6
CONTINUOUS2
 62
     1
100
AcDbLine
 10
4.8009
 20
0.927
 30
0.0
 11
4.8009
 21
0.777
 31
0.0
  0
LINE
  5
21C
100
AcDbEntity
  8
10188XRPL_A_SMT
390
0
  6
CONTINUOUS2
 62
     1
100
AcDbLine
 10
4.8
 20
0.927
 30
0.0
 11
4.8
 21
0.777
 31
0.0
  0
LINE
  5
21D
100
AcDbEntity
  8
10188XRPL_A_SMT
390
0
  6
CONTINUOUS2
 62
     1
100
AcDbLine
 10
4.7991
 20
0.927
 30
0.0
 11
4.7991
 21
0.777
 31
0.0
  0
LINE
  5
21E
100
AcDbEntity
  8
10188XRPL_A_SMT
390
0
  6
CONTINUOUS2
 62
     1
100
AcDbLine
 10
4.7982
 20
0.927
 30
0.0
 11
4.7982
 21
0.777
 31
0.0
  0
LINE
  5
21F
100
AcDbEntity
  8
10188XRPL_A_SMT
390
0
  6
CONTINUOUS2
 62
     1
100
AcDbLine
 10
4.7973
 20
0.927
 30
0.0
 11
4.7973
 21
0.777
 31
0.0
  0
LINE
  5
220
100
AcDbEntity
  8
10188XRPL_A_SMT
390
0
  6
CONTINUOUS2
 62
     1
100
AcDbLine
 10
4.7964
 20
0.927
 30
0.0
 11
4.7964
 21
0.777
 31
0.0
  0
LINE
  5
221
100
AcDbEntity
  8
10188XRPL_A_SMT
390
0
  6
CONTINUOUS2
 62
     1
100
AcDbLine
 10
4.7955
 20
0.927
 30
0.0
 11
4.7955
 21
0.777
 31
0.0
  0
LINE
  5
222
100
AcDbEntity
  8
10188XRPL_A_SMT
390
0
  6
CONTINUOUS2
 62
     1
100
AcDbLine
 10
4.7946
 20
0.927
 30
0.0
 11
4.7946
 21
0.777
 31
0.0
  0
LINE
  5
223
100
AcDbEntity
  8
10188XRPL_A_SMT
390
0
  6
CONTINUOUS2
 62
     1
100
AcDbLine
 10
4.7937
 20
0.927
 30
0.0
 11
4.7937
 21
0.777
 31
0.0
  0
LINE
  5
224
100
AcDbEntity
  8
10188XRPL_A_SMT
390
0
  6
CONTINUOUS2
 62
     1
100
AcDbLine
 10
4.7928
 20
0.927
 30
0.0
 11
4.7928
 21
0.777
 31
0.0
  0
LINE
  5
225
100
AcDbEntity
  8
10188XRPL_A_SMT
390
0
  6
CONTINUOUS2
 62
     1
100
AcDbLine
 10
4.7919
 20
0.927
 30
0.0
 11
4.7919
 21
0.777
 31
0.0
  0
LINE
  5
226
100
AcDbEntity
  8
10188XRPL_A_SMT
390
0
  6
CONTINUOUS2
 62
     1
100
AcDbLine
 10
4.791
 20
0.927
 30
0.0
 11
4.791
 21
0.777
 31
0.0
  0
LINE
  5
227
100
AcDbEntity
  8
10188XRPL_A_SMT
390
0
  6
CONTINUOUS2
 62
     1
100
AcDbLine
 10
4.7901
 20
0.927
 30
0.0
 11
4.7901
 21
0.777
 31
0.0
  0
LINE
  5
228
100
AcDbEntity
  8
10188XRPL_A_SMT
390
0
  6
CONTINUOUS2
 62
     1
100
AcDbLine
 10
4.7892
 20
0.927
 30
0.0
 11
4.7892
 21
0.777
 31
0.0
  0
LINE
  5
229
100
AcDbEntity
  8
10188XRPL_A_SMT
390
0
  6
CONTINUOUS2
 62
     1
100
AcDbLine
 10
4.7883
 20
0.927
 30
0.0
 11
4.7883
 21
0.777
 31
0.0
  0
LINE
  5
22A
100
AcDbEntity
  8
10188XRPL_A_SMT
390
0
  6
CONTINUOUS2
 62
     1
100
AcDbLine
 10
4.7874
 20
0.927
 30
0.0
 11
4.7874
 21
0.777
 31
0.0
  0
LINE
  5
22B
100
AcDbEntity
  8
10188XRPL_A_SMT
390
0
  6
CONTINUOUS2
 62
     1
100
AcDbLine
 10
4.7865
 20
0.927
 30
0.0
 11
4.7865
 21
0.777
 31
0.0
  0
LINE
  5
22C
100
AcDbEntity
  8
10188XRPL_A_SMT
390
0
  6
CONTINUOUS2
 62
     1
100
AcDbLine
 10
4.7856
 20
0.927
 30
0.0
 11
4.7856
 21
0.777
 31
0.0
  0
LINE
  5
22D
100
AcDbEntity
  8
10188XRPL_A_SMT
390
0
  6
CONTINUOUS2
 62
     1
100
AcDbLine
 10
4.7847
 20
0.927
 30
0.0
 11
4.7847
 21
0.777
 31
0.0
  0
LINE
  5
22E
100
AcDbEntity
  8
10188XRPL_A_SMT
390
0
  6
CONTINUOUS2
 62
     1
100
AcDbLine
 10
4.7838
 20
0.927
 30
0.0
 11
4.7838
 21
0.777
 31
0.0
  0
LINE
  5
22F
100
AcDbEntity
  8
10188XRPL_A_SMT
390
0
  6
CONTINUOUS2
 62
     1
100
AcDbLine
 10
4.7829
 20
0.927
 30
0.0
 11
4.7829
 21
0.777
 31
0.0
  0
LINE
  5
230
100
AcDbEntity
  8
10188XRPL_A_SMT
390
0
  6
CONTINUOUS2
 62
     1
100
AcDbLine
 10
4.782
 20
0.927
 30
0.0
 11
4.782
 21
0.777
 31
0.0
  0
LINE
  5
231
100
AcDbEntity
  8
10188XRPL_A_SMT
390
0
  6
CONTINUOUS2
 62
     1
100
AcDbLine
 10
4.7811
 20
0.927
 30
0.0
 11
4.7811
 21
0.777
 31
0.0
  0
LINE
  5
232
100
AcDbEntity
  8
10188XRPL_A_SMT
390
0
  6
CONTINUOUS2
 62
     1
100
AcDbLine
 10
4.7802
 20
0.927
 30
0.0
 11
4.7802
 21
0.777
 31
0.0
  0
LINE
  5
233
100
AcDbEntity
  8
10188XRPL_A_SMT
390
0
  6
CONTINUOUS2
 62
     1
100
AcDbLine
 10
4.7793
 20
0.927
 30
0.0
 11
4.7793
 21
0.777
 31
0.0
  0
LINE
  5
234
100
AcDbEntity
  8
10188XRPL_A_SMT
390
0
  6
CONTINUOUS2
 62
     1
100
AcDbLine
 10
4.7784
 20
0.927
 30
0.0
 11
4.7784
 21
0.777
 31
0.0
  0
LINE
  5
235
100
AcDbEntity
  8
10188XRPL_A_SMT
390
0
  6
CONTINUOUS2
 62
     1
100
AcDbLine
 10
4.7775
 20
0.927
 30
0.0
 11
4.7775
 21
0.777
 31
0.0
  0
LINE
  5
236
100
AcDbEntity
  8
10188XRPL_A_SMT
390
0
  6
CONTINUOUS2
 62
     1
100
AcDbLine
 10
4.7766
 20
0.927
 30
0.0
 11
4.7766
 21
0.777
 31
0.0
  0
LINE
  5
237
100
AcDbEntity
  8
10188XRPL_A_SMT
390
0
  6
CONTINUOUS2
 62
     1
100
AcDbLine
 10
4.7757
 20
0.927
 30
0.0
 11
4.7757
 21
0.777
 31
0.0
  0
LINE
  5
238
100
AcDbEntity
  8
10188XRPL_A_SMT
390
0
  6
CONTINUOUS2
 62
     1
100
AcDbLine
 10
4.7748
 20
0.927
 30
0.0
 11
4.7748
 21
0.777
 31
0.0
  0
LINE
  5
239
100
AcDbEntity
  8
10188XRPL_A_SMT
390
0
  6
CONTINUOUS2
 62
     1
100
AcDbLine
 10
4.7739
 20
0.927
 30
0.0
 11
4.7739
 21
0.777
 31
0.0
  0
LINE
  5
23A
100
AcDbEntity
  8
10188XRPL_A_SMT
390
0
  6
CONTINUOUS2
 62
     1
100
AcDbLine
 10
4.773
 20
0.927
 30
0.0
 11
4.773
 21
0.777
 31
0.0
  0
LINE
  5
23B
100
AcDbEntity
  8
10188XRPL_A_SMT
390
0
  6
CONTINUOUS2
 62
     1
100
AcDbLine
 10
4.7721
 20
0.927
 30
0.0
 11
4.7721
 21
0.777
 31
0.0
  0
LINE
  5
23C
100
AcDbEntity
  8
10188XRPL_A_SMT
390
0
  6
CONTINUOUS2
 62
     1
100
AcDbLine
 10
4.7712
 20
0.927
 30
0.0
 11
4.7712
 21
0.777
 31
0.0
  0
LINE
  5
23D
100
AcDbEntity
  8
10188XRPL_A_SMT
390
0
  6
CONTINUOUS2
 62
     1
100
AcDbLine
 10
4.7703
 20
0.927
 30
0.0
 11
4.7703
 21
0.777
 31
0.0
  0
LINE
  5
23E
100
AcDbEntity
  8
10188XRPL_A_SMT
390
0
  6
CONTINUOUS2
 62
     1
100
AcDbLine
 10
4.7694
 20
0.927
 30
0.0
 11
4.7694
 21
0.777
 31
0.0
  0
LINE
  5
23F
100
AcDbEntity
  8
10188XRPL_A_SMT
390
0
  6
CONTINUOUS2
 62
     1
100
AcDbLine
 10
4.7685
 20
0.927
 30
0.0
 11
4.7685
 21
0.777
 31
0.0
  0
LINE
  5
240
100
AcDbEntity
  8
10188XRPL_A_SMT
390
0
  6
CONTINUOUS2
 62
     1
100
AcDbLine
 10
4.7676
 20
0.927
 30
0.0
 11
4.7676
 21
0.777
 31
0.0
  0
LINE
  5
241
100
AcDbEntity
  8
10188XRPL_A_SMT
390
0
  6
CONTINUOUS2
 62
     1
100
AcDbLine
 10
4.7667
 20
0.927
 30
0.0
 11
4.7667
 21
0.777
 31
0.0
  0
LINE
  5
242
100
AcDbEntity
  8
10188XRPL_A_SMT
390
0
  6
CONTINUOUS2
 62
     1
100
AcDbLine
 10
4.7658
 20
0.927
 30
0.0
 11
4.7658
 21
0.777
 31
0.0
  0
LINE
  5
243
100
AcDbEntity
  8
10188XRPL_A_SMT
390
0
  6
CONTINUOUS2
 62
     1
100
AcDbLine
 10
4.7649
 20
0.927
 30
0.0
 11
4.7649
 21
0.777
 31
0.0
  0
LINE
  5
244
100
AcDbEntity
  8
10188XRPL_A_SMT
390
0
  6
CONTINUOUS2
 62
     1
100
AcDbLine
 10
4.764
 20
0.927
 30
0.0
 11
4.764
 21
0.777
 31
0.0
  0
LINE
  5
245
100
AcDbEntity
  8
10188XRPL_A_SMT
390
0
  6
CONTINUOUS2
 62
     1
100
AcDbLine
 10
4.7631
 20
0.927
 30
0.0
 11
4.7631
 21
0.777
 31
0.0
  0
LINE
  5
246
100
AcDbEntity
  8
10188XRPL_A_SMT
390
0
  6
CONTINUOUS2
 62
     1
100
AcDbLine
 10
4.7622
 20
0.927
 30
0.0
 11
4.7622
 21
0.777
 31
0.0
  0
LINE
  5
247
100
AcDbEntity
  8
10188XRPL_A_SMT
390
0
  6
CONTINUOUS2
 62
     1
100
AcDbLine
 10
4.7613
 20
0.927
 30
0.0
 11
4.7613
 21
0.777
 31
0.0
  0
LINE
  5
248
100
AcDbEntity
  8
10188XRPL_A_SMT
390
0
  6
CONTINUOUS2
 62
     1
100
AcDbLine
 10
4.7604
 20
0.927
 30
0.0
 11
4.7604
 21
0.777
 31
0.0
  0
LINE
  5
249
100
AcDbEntity
  8
10188XRPL_A_SMT
390
0
  6
CONTINUOUS2
 62
     1
100
AcDbLine
 10
4.7595
 20
0.927
 30
0.0
 11
4.7595
 21
0.777
 31
0.0
  0
LINE
  5
24A
100
AcDbEntity
  8
10188XRPL_A_SMT
390
0
  6
CONTINUOUS2
 62
     1
100
AcDbLine
 10
4.7586
 20
0.927
 30
0.0
 11
4.7586
 21
0.777
 31
0.0
  0
LINE
  5
24B
100
AcDbEntity
  8
10188XRPL_A_SMT
390
0
  6
CONTINUOUS2
 62
     1
100
AcDbLine
 10
4.7577
 20
0.927
 30
0.0
 11
4.7577
 21
0.777
 31
0.0
  0
LINE
  5
24C
100
AcDbEntity
  8
10188XRPL_A_SMT
390
0
  6
CONTINUOUS2
 62
     1
100
AcDbLine
 10
4.7568
 20
0.927
 30
0.0
 11
4.7568
 21
0.777
 31
0.0
  0
LINE
  5
24D
100
AcDbEntity
  8
10188XRPL_A_SMT
390
0
  6
CONTINUOUS2
 62
     1
100
AcDbLine
 10
4.7559
 20
0.927
 30
0.0
 11
4.7559
 21
0.777
 31
0.0
  0
LINE
  5
24E
100
AcDbEntity
  8
10188XRPL_A_SMT
390
0
  6
CONTINUOUS2
 62
     1
100
AcDbLine
 10
4.755
 20
0.927
 30
0.0
 11
4.755
 21
0.777
 31
0.0
  0
LINE
  5
24F
100
AcDbEntity
  8
10188XRPL_A_SMT
390
0
  6
CONTINUOUS2
 62
     1
100
AcDbLine
 10
4.7541
 20
0.927
 30
0.0
 11
4.7541
 21
0.777
 31
0.0
  0
LINE
  5
250
100
AcDbEntity
  8
10188XRPL_A_SMT
390
0
  6
CONTINUOUS2
 62
     1
100
AcDbLine
 10
4.7532
 20
0.927
 30
0.0
 11
4.7532
 21
0.777
 31
0.0
  0
LINE
  5
251
100
AcDbEntity
  8
10188XRPL_A_SMT
390
0
  6
CONTINUOUS2
 62
     1
100
AcDbLine
 10
4.7523
 20
0.927
 30
0.0
 11
4.7523
 21
0.777
 31
0.0
  0
LINE
  5
252
100
AcDbEntity
  8
10188XRPL_A_SMT
390
0
  6
CONTINUOUS2
 62
     1
100
AcDbLine
 10
4.7514
 20
0.927
 30
0.0
 11
4.7514
 21
0.777
 31
0.0
  0
LINE
  5
253
100
AcDbEntity
  8
10188XRPL_A_SMT
390
0
  6
CONTINUOUS2
 62
     1
100
AcDbLine
 10
4.7505
 20
0.927
 30
0.0
 11
4.7505
 21
0.777
 31
0.0
  0
LINE
  5
254
100
AcDbEntity
  8
10188XRPL_A_SMT
390
0
  6
CONTINUOUS2
 62
     1
100
AcDbLine
 10
4.7496
 20
0.927
 30
0.0
 11
4.7496
 21
0.777
 31
0.0
  0
LINE
  5
255
100
AcDbEntity
  8
10188XRPL_A_SMT
390
0
  6
CONTINUOUS2
 62
     1
100
AcDbLine
 10
4.7487
 20
0.927
 30
0.0
 11
4.7487
 21
0.777
 31
0.0
  0
LINE
  5
256
100
AcDbEntity
  8
10188XRPL_A_SMT
390
0
  6
CONTINUOUS2
 62
     1
100
AcDbLine
 10
4.7478
 20
0.927
 30
0.0
 11
4.7478
 21
0.777
 31
0.0
  0
LINE
  5
257
100
AcDbEntity
  8
10188XRPL_A_SMT
390
0
  6
CONTINUOUS2
 62
     1
100
AcDbLine
 10
4.7469
 20
0.927
 30
0.0
 11
4.7469
 21
0.777
 31
0.0
  0
LINE
  5
258
100
AcDbEntity
  8
10188XRPL_A_SMT
390
0
  6
CONTINUOUS2
 62
     1
100
AcDbLine
 10
4.746
 20
0.927
 30
0.0
 11
4.746
 21
0.777
 31
0.0
  0
LINE
  5
259
100
AcDbEntity
  8
10188XRPL_A_SMT
390
0
  6
CONTINUOUS2
 62
     1
100
AcDbLine
 10
4.7451
 20
0.927
 30
0.0
 11
4.7451
 21
0.777
 31
0.0
  0
LINE
  5
25A
100
AcDbEntity
  8
10188XRPL_A_SMT
390
0
  6
CONTINUOUS2
 62
     1
100
AcDbLine
 10
4.7442
 20
0.927
 30
0.0
 11
4.7442
 21
0.777
 31
0.0
  0
LINE
  5
25B
100
AcDbEntity
  8
10188XRPL_A_SMT
390
0
  6
CONTINUOUS2
 62
     1
100
AcDbLine
 10
4.7433
 20
0.927
 30
0.0
 11
4.7433
 21
0.777
 31
0.0
  0
LINE
  5
25C
100
AcDbEntity
  8
10188XRPL_A_SMT
390
0
  6
CONTINUOUS2
 62
     1
100
AcDbLine
 10
4.7424
 20
0.927
 30
0.0
 11
4.7424
 21
0.777
 31
0.0
  0
LINE
  5
25D
100
AcDbEntity
  8
10188XRPL_A_SMT
390
0
  6
CONTINUOUS2
 62
     1
100
AcDbLine
 10
4.7415
 20
0.927
 30
0.0
 11
4.7415
 21
0.777
 31
0.0
  0
LINE
  5
25E
100
AcDbEntity
  8
10188XRPL_A_SMT
390
0
  6
CONTINUOUS2
 62
     1
100
AcDbLine
 10
4.7406
 20
0.927
 30
0.0
 11
4.7406
 21
0.777
 31
0.0
  0
LINE
  5
25F
100
AcDbEntity
  8
10188XRPL_A_SMT
390
0
  6
CONTINUOUS2
 62
     1
100
AcDbLine
 10
4.7397
 20
0.927
 30
0.0
 11
4.7397
 21
0.777
 31
0.0
  0
LINE
  5
260
100
AcDbEntity
  8
10188XRPL_A_SMT
390
0
  6
CONTINUOUS2
 62
     1
100
AcDbLine
 10
4.7388
 20
0.927
 30
0.0
 11
4.7388
 21
0.777
 31
0.0
  0
LINE
  5
261
100
AcDbEntity
  8
10188XRPL_A_SMT
390
0
  6
CONTINUOUS2
 62
     1
100
AcDbLine
 10
4.7379
 20
0.927
 30
0.0
 11
4.7379
 21
0.777
 31
0.0
  0
LINE
  5
262
100
AcDbEntity
  8
10188XRPL_A_SMT
390
0
  6
CONTINUOUS2
 62
     1
100
AcDbLine
 10
4.737
 20
0.927
 30
0.0
 11
4.737
 21
0.777
 31
0.0
  0
LINE
  5
263
100
AcDbEntity
  8
10188XRPL_A_SMT
390
0
  6
CONTINUOUS2
 62
     1
100
AcDbLine
 10
4.7361
 20
0.927
 30
0.0
 11
4.7361
 21
0.777
 31
0.0
  0
LINE
  5
264
100
AcDbEntity
  8
10188XRPL_A_SMT
390
0
  6
CONTINUOUS2
 62
     1
100
AcDbLine
 10
4.7352
 20
0.927
 30
0.0
 11
4.7352
 21
0.777
 31
0.0
  0
LINE
  5
265
100
AcDbEntity
  8
10188XRPL_A_SMT
390
0
  6
CONTINUOUS2
 62
     1
100
AcDbLine
 10
4.7343
 20
0.927
 30
0.0
 11
4.7343
 21
0.777
 31
0.0
  0
LINE
  5
266
100
AcDbEntity
  8
10188XRPL_A_SMT
390
0
  6
CONTINUOUS2
 62
     1
100
AcDbLine
 10
4.7334
 20
0.927
 30
0.0
 11
4.7334
 21
0.777
 31
0.0
  0
LINE
  5
267
100
AcDbEntity
  8
10188XRPL_A_SMT
390
0
  6
CONTINUOUS2
 62
     1
100
AcDbLine
 10
4.7325
 20
0.927
 30
0.0
 11
4.7325
 21
0.777
 31
0.0
  0
LINE
  5
268
100
AcDbEntity
  8
10188XRPL_A_SMT
390
0
  6
CONTINUOUS2
 62
     1
100
AcDbLine
 10
4.7316
 20
0.927
 30
0.0
 11
4.7316
 21
0.777
 31
0.0
  0
LINE
  5
269
100
AcDbEntity
  8
10188XRPL_A_SMT
390
0
  6
CONTINUOUS2
 62
     1
100
AcDbLine
 10
4.7307
 20
0.927
 30
0.0
 11
4.7307
 21
0.777
 31
0.0
  0
LINE
  5
26A
100
AcDbEntity
  8
10188XRPL_A_SMT
390
0
  6
CONTINUOUS2
 62
     1
100
AcDbLine
 10
4.7298
 20
0.927
 30
0.0
 11
4.7298
 21
0.777
 31
0.0
  0
LINE
  5
26B
100
AcDbEntity
  8
10188XRPL_A_SMT
390
0
  6
CONTINUOUS2
 62
     1
100
AcDbLine
 10
4.7289
 20
0.927
 30
0.0
 11
4.7289
 21
0.777
 31
0.0
  0
LINE
  5
26C
100
AcDbEntity
  8
10188XRPL_A_SMT
390
0
  6
CONTINUOUS2
 62
     1
100
AcDbLine
 10
4.728
 20
0.927
 30
0.0
 11
4.728
 21
0.777
 31
0.0
  0
LINE
  5
26D
100
AcDbEntity
  8
10188XRPL_A_SMT
390
0
  6
CONTINUOUS2
 62
     1
100
AcDbLine
 10
4.7271
 20
0.927
 30
0.0
 11
4.7271
 21
0.777
 31
0.0
  0
LINE
  5
26E
100
AcDbEntity
  8
10188XRPL_A_SMT
390
0
  6
CONTINUOUS2
 62
     1
100
AcDbLine
 10
4.7262
 20
0.927
 30
0.0
 11
4.7262
 21
0.777
 31
0.0
  0
LINE
  5
26F
100
AcDbEntity
  8
10188XRPL_A_SMT
390
0
  6
CONTINUOUS2
 62
     1
100
AcDbLine
 10
4.7253
 20
0.927
 30
0.0
 11
4.7253
 21
0.777
 31
0.0
  0
LINE
  5
270
100
AcDbEntity
  8
10188XRPL_A_SMT
390
0
  6
CONTINUOUS2
 62
     1
100
AcDbLine
 10
4.7244
 20
0.927
 30
0.0
 11
4.7244
 21
0.777
 31
0.0
  0
LINE
  5
271
100
AcDbEntity
  8
10188XRPL_A_SMT
390
0
  6
CONTINUOUS2
 62
     1
100
AcDbLine
 10
4.7235
 20
0.927
 30
0.0
 11
4.7235
 21
0.777
 31
0.0
  0
LINE
  5
272
100
AcDbEntity
  8
10188XRPL_A_SMT
390
0
  6
CONTINUOUS2
 62
     1
100
AcDbLine
 10
4.7226
 20
0.927
 30
0.0
 11
4.7226
 21
0.777
 31
0.0
  0
LINE
  5
273
100
AcDbEntity
  8
10188XRPL_A_SMT
390
0
  6
CONTINUOUS2
 62
     1
100
AcDbLine
 10
4.7217
 20
0.927
 30
0.0
 11
4.7217
 21
0.777
 31
0.0
  0
LINE
  5
274
100
AcDbEntity
  8
10188XRPL_A_SMT
390
0
  6
CONTINUOUS2
 62
     1
100
AcDbLine
 10
4.7208
 20
0.927
 30
0.0
 11
4.7208
 21
0.777
 31
0.0
  0
LINE
  5
275
100
AcDbEntity
  8
10188XRPL_A_SMT
390
0
  6
CONTINUOUS2
 62
     1
100
AcDbLine
 10
4.7199
 20
0.927
 30
0.0
 11
4.7199
 21
0.777
 31
0.0
  0
LINE
  5
276
100
AcDbEntity
  8
10188XRPL_A_SMT
390
0
  6
CONTINUOUS2
 62
     1
100
AcDbLine
 10
4.719
 20
0.927
 30
0.0
 11
4.719
 21
0.777
 31
0.0
  0
LINE
  5
277
100
AcDbEntity
  8
10188XRPL_A_SMT
390
0
  6
CONTINUOUS2
 62
     1
100
AcDbLine
 10
4.7181
 20
0.927
 30
0.0
 11
4.7181
 21
0.777
 31
0.0
  0
LINE
  5
278
100
AcDbEntity
  8
10188XRPL_A_SMT
390
0
  6
CONTINUOUS2
 62
     1
100
AcDbLine
 10
4.7172
 20
0.927
 30
0.0
 11
4.7172
 21
0.777
 31
0.0
  0
LINE
  5
279
100
AcDbEntity
  8
10188XRPL_A_SMT
390
0
  6
CONTINUOUS2
 62
     1
100
AcDbLine
 10
4.7163
 20
0.927
 30
0.0
 11
4.7163
 21
0.777
 31
0.0
  0
LINE
  5
27A
100
AcDbEntity
  8
10188XRPL_A_SMT
390
0
  6
CONTINUOUS2
 62
     1
100
AcDbLine
 10
4.7154
 20
0.927
 30
0.0
 11
4.7154
 21
0.777
 31
0.0
  0
LINE
  5
27B
100
AcDbEntity
  8
10188XRPL_A_SMT
390
0
  6
CONTINUOUS2
 62
     1
100
AcDbLine
 10
4.7145
 20
0.927
 30
0.0
 11
4.7145
 21
0.777
 31
0.0
  0
LINE
  5
27C
100
AcDbEntity
  8
10188XRPL_A_SMT
390
0
  6
CONTINUOUS2
 62
     1
100
AcDbLine
 10
4.7136
 20
0.927
 30
0.0
 11
4.7136
 21
0.777
 31
0.0
  0
LINE
  5
27D
100
AcDbEntity
  8
10188XRPL_A_SMT
390
0
  6
CONTINUOUS2
 62
     1
100
AcDbLine
 10
4.7127
 20
0.927
 30
0.0
 11
4.7127
 21
0.777
 31
0.0
  0
LINE
  5
27E
100
AcDbEntity
  8
10188XRPL_A_SMT
390
0
  6
CONTINUOUS2
 62
     1
100
AcDbLine
 10
4.7118
 20
0.927
 30
0.0
 11
4.7118
 21
0.777
 31
0.0
  0
LINE
  5
27F
100
AcDbEntity
  8
10188XRPL_A_SMT
390
0
  6
CONTINUOUS2
 62
     1
100
AcDbLine
 10
4.7109
 20
0.927
 30
0.0
 11
4.7109
 21
0.777
 31
0.0
  0
LINE
  5
280
100
AcDbEntity
  8
10188XRPL_A_SMT
390
0
  6
CONTINUOUS2
 62
     1
100
AcDbLine
 10
4.71
 20
0.927
 30
0.0
 11
4.71
 21
0.777
 31
0.0
  0
LINE
  5
281
100
AcDbEntity
  8
10188XRPL_A_SMT
390
0
  6
CONTINUOUS2
 62
     1
100
AcDbLine
 10
4.7091
 20
0.927
 30
0.0
 11
4.7091
 21
0.777
 31
0.0
  0
LINE
  5
282
100
AcDbEntity
  8
10188XRPL_A_SMT
390
0
  6
CONTINUOUS2
 62
     1
100
AcDbLine
 10
4.7082
 20
0.927
 30
0.0
 11
4.7082
 21
0.777
 31
0.0
  0
LINE
  5
283
100
AcDbEntity
  8
10188XRPL_A_SMT
390
0
  6
CONTINUOUS2
 62
     1
100
AcDbLine
 10
4.7073
 20
0.927
 30
0.0
 11
4.7073
 21
0.777
 31
0.0
  0
LINE
  5
284
100
AcDbEntity
  8
10188XRPL_A_SMT
390
0
  6
CONTINUOUS2
 62
     1
100
AcDbLine
 10
4.7064
 20
0.927
 30
0.0
 11
4.7064
 21
0.777
 31
0.0
  0
LINE
  5
285
100
AcDbEntity
  8
10188XRPL_A_SMT
390
0
  6
CONTINUOUS2
 62
     1
100
AcDbLine
 10
4.7055
 20
0.927
 30
0.0
 11
4.7055
 21
0.777
 31
0.0
  0
LINE
  5
286
100
AcDbEntity
  8
10188XRPL_A_SMT
390
0
  6
CONTINUOUS2
 62
     1
100
AcDbLine
 10
4.7046
 20
0.927
 30
0.0
 11
4.7046
 21
0.777
 31
0.0
  0
LINE
  5
287
100
AcDbEntity
  8
10188XRPL_A_SMT
390
0
  6
CONTINUOUS2
 62
     1
100
AcDbLine
 10
4.7037
 20
0.927
 30
0.0
 11
4.7037
 21
0.777
 31
0.0
  0
LINE
  5
288
100
AcDbEntity
  8
10188XRPL_A_SMT
390
0
  6
CONTINUOUS2
 62
     1
100
AcDbLine
 10
4.7028
 20
0.927
 30
0.0
 11
4.7028
 21
0.777
 31
0.0
  0
LINE
  5
289
100
AcDbEntity
  8
10188XRPL_A_SMT
390
0
  6
CONTINUOUS2
 62
     1
100
AcDbLine
 10
4.7019
 20
0.927
 30
0.0
 11
4.7019
 21
0.777
 31
0.0
  0
LINE
  5
28A
100
AcDbEntity
  8
10188XRPL_A_SMT
390
0
  6
CONTINUOUS2
 62
     1
100
AcDbLine
 10
4.701
 20
0.927
 30
0.0
 11
4.701
 21
0.777
 31
0.0
  0
LINE
  5
28B
100
AcDbEntity
  8
10188XRPL_A_SMT
390
0
  6
CONTINUOUS2
 62
     1
100
AcDbLine
 10
4.7001
 20
0.927
 30
0.0
 11
4.7001
 21
0.777
 31
0.0
  0
LINE
  5
28C
100
AcDbEntity
  8
10188XRPL_A_SMT
390
0
  6
CONTINUOUS2
 62
     1
100
AcDbLine
 10
4.6992
 20
0.927
 30
0.0
 11
4.6992
 21
0.777
 31
0.0
  0
LINE
  5
28D
100
AcDbEntity
  8
10188XRPL_A_SMT
390
0
  6
CONTINUOUS2
 62
     1
100
AcDbLine
 10
4.6983
 20
0.927
 30
0.0
 11
4.6983
 21
0.777
 31
0.0
  0
LINE
  5
28E
100
AcDbEntity
  8
10188XRPL_A_SMT
390
0
  6
CONTINUOUS2
 62
     1
100
AcDbLine
 10
4.6974
 20
0.927
 30
0.0
 11
4.6974
 21
0.777
 31
0.0
  0
LINE
  5
28F
100
AcDbEntity
  8
10188XRPL_A_SMT
390
0
  6
CONTINUOUS2
 62
     1
100
AcDbLine
 10
4.6965
 20
0.927
 30
0.0
 11
4.6965
 21
0.777
 31
0.0
  0
LINE
  5
290
100
AcDbEntity
  8
10188XRPL_A_SMT
390
0
  6
CONTINUOUS2
 62
     1
100
AcDbLine
 10
4.6956
 20
0.927
 30
0.0
 11
4.6956
 21
0.777
 31
0.0
  0
LINE
  5
291
100
AcDbEntity
  8
10188XRPL_A_SMT
390
0
  6
CONTINUOUS2
 62
     1
100
AcDbLine
 10
4.6947
 20
0.927
 30
0.0
 11
4.6947
 21
0.777
 31
0.0
  0
LINE
  5
292
100
AcDbEntity
  8
10188XRPL_A_SMT
390
0
  6
CONTINUOUS2
 62
     1
100
AcDbLine
 10
4.6938
 20
0.927
 30
0.0
 11
4.6938
 21
0.777
 31
0.0
  0
LINE
  5
293
100
AcDbEntity
  8
10188XRPL_A_SMT
390
0
  6
CONTINUOUS2
 62
     1
100
AcDbLine
 10
4.6929
 20
0.927
 30
0.0
 11
4.6929
 21
0.777
 31
0.0
  0
LINE
  5
294
100
AcDbEntity
  8
10188XRPL_A_SMT
390
0
  6
CONTINUOUS2
 62
     1
100
AcDbLine
 10
4.692
 20
0.927
 30
0.0
 11
4.692
 21
0.777
 31
0.0
  0
LINE
  5
295
100
AcDbEntity
  8
10188XRPL_A_SMT
390
0
  6
CONTINUOUS2
 62
     1
100
AcDbLine
 10
4.6911
 20
0.927
 30
0.0
 11
4.6911
 21
0.777
 31
0.0
  0
LINE
  5
296
100
AcDbEntity
  8
10188XRPL_A_SMT
390
0
  6
CONTINUOUS2
 62
     1
100
AcDbLine
 10
4.6902
 20
0.927
 30
0.0
 11
4.6902
 21
0.777
 31
0.0
  0
LINE
  5
297
100
AcDbEntity
  8
10188XRPL_A_SMT
390
0
  6
CONTINUOUS2
 62
     1
100
AcDbLine
 10
4.6893
 20
0.927
 30
0.0
 11
4.6893
 21
0.777
 31
0.0
  0
LINE
  5
298
100
AcDbEntity
  8
10188XRPL_A_SMT
390
0
  6
CONTINUOUS2
 62
     1
100
AcDbLine
 10
4.6884
 20
0.927
 30
0.0
 11
4.6884
 21
0.777
 31
0.0
  0
LINE
  5
299
100
AcDbEntity
  8
10188XRPL_A_SMT
390
0
  6
CONTINUOUS2
 62
     1
100
AcDbLine
 10
4.6875
 20
0.927
 30
0.0
 11
4.6875
 21
0.777
 31
0.0
  0
LINE
  5
29A
100
AcDbEntity
  8
10188XRPL_A_SMT
390
0
  6
CONTINUOUS2
 62
     1
100
AcDbLine
 10
4.6866
 20
0.927
 30
0.0
 11
4.6866
 21
0.777
 31
0.0
  0
LINE
  5
29B
100
AcDbEntity
  8
10188XRPL_A_SMT
390
0
  6
CONTINUOUS2
 62
     1
100
AcDbLine
 10
4.6857
 20
0.927
 30
0.0
 11
4.6857
 21
0.777
 31
0.0
  0
LINE
  5
29C
100
AcDbEntity
  8
10188XRPL_A_SMT
390
0
  6
CONTINUOUS2
 62
     1
100
AcDbLine
 10
4.6848
 20
0.927
 30
0.0
 11
4.6848
 21
0.777
 31
0.0
  0
LINE
  5
29D
100
AcDbEntity
  8
10188XRPL_A_SMT
390
0
  6
CONTINUOUS2
 62
     1
100
AcDbLine
 10
4.6839
 20
0.927
 30
0.0
 11
4.6839
 21
0.777
 31
0.0
  0
LINE
  5
29E
100
AcDbEntity
  8
10188XRPL_A_SMT
390
0
  6
CONTINUOUS2
 62
     1
100
AcDbLine
 10
4.683
 20
0.927
 30
0.0
 11
4.683
 21
0.777
 31
0.0
  0
LINE
  5
29F
100
AcDbEntity
  8
10188XRPL_A_SMT
390
0
  6
CONTINUOUS2
 62
     1
100
AcDbLine
 10
4.6821
 20
0.927
 30
0.0
 11
4.6821
 21
0.777
 31
0.0
  0
LINE
  5
2A0
100
AcDbEntity
  8
10188XRPL_A_SMT
390
0
  6
CONTINUOUS2
 62
     1
100
AcDbLine
 10
4.6812
 20
0.927
 30
0.0
 11
4.6812
 21
0.777
 31
0.0
  0
LINE
  5
2A1
100
AcDbEntity
  8
10188XRPL_A_SMT
390
0
  6
CONTINUOUS2
 62
     1
100
AcDbLine
 10
4.6803
 20
0.927
 30
0.0
 11
4.6803
 21
0.777
 31
0.0
  0
LINE
  5
2A2
100
AcDbEntity
  8
10188XRPL_A_SMT
390
0
  6
CONTINUOUS2
 62
     1
100
AcDbLine
 10
4.929
 20
0.9259
 30
0.0
 11
4.679
 21
0.9259
 31
0.0
  0
LINE
  5
2A3
100
AcDbEntity
  8
10188XRPL_A_SMT
390
0
  6
CONTINUOUS2
 62
     1
100
AcDbLine
 10
4.929
 20
0.925
 30
0.0
 11
4.679
 21
0.925
 31
0.0
  0
LINE
  5
2A4
100
AcDbEntity
  8
10188XRPL_A_SMT
390
0
  6
CONTINUOUS2
 62
     1
100
AcDbLine
 10
4.929
 20
0.9241
 30
0.0
 11
4.679
 21
0.9241
 31
0.0
  0
LINE
  5
2A5
100
AcDbEntity
  8
10188XRPL_A_SMT
390
0
  6
CONTINUOUS2
 62
     1
100
AcDbLine
 10
4.929
 20
0.9232
 30
0.0
 11
4.679
 21
0.9232
 31
0.0
  0
LINE
  5
2A6
100
AcDbEntity
  8
10188XRPL_A_SMT
390
0
  6
CONTINUOUS2
 62
     1
100
AcDbLine
 10
4.929
 20
0.9223
 30
0.0
 11
4.679
 21
0.9223
 31
0.0
  0
LINE
  5
2A7
100
AcDbEntity
  8
10188XRPL_A_SMT
390
0
  6
CONTINUOUS2
 62
     1
100
AcDbLine
 10
4.929
 20
0.9214
 30
0.0
 11
4.679
 21
0.9214
 31
0.0
  0
LINE
  5
2A8
100
AcDbEntity
  8
10188XRPL_A_SMT
390
0
  6
CONTINUOUS2
 62
     1
100
AcDbLine
 10
4.929
 20
0.9205
 30
0.0
 11
4.679
 21
0.9205
 31
0.0
  0
LINE
  5
2A9
100
AcDbEntity
  8
10188XRPL_A_SMT
390
0
  6
CONTINUOUS2
 62
     1
100
AcDbLine
 10
4.929
 20
0.9196
 30
0.0
 11
4.679
 21
0.9196
 31
0.0
  0
LINE
  5
2AA
100
AcDbEntity
  8
10188XRPL_A_SMT
390
0
  6
CONTINUOUS2
 62
     1
100
AcDbLine
 10
4.929
 20
0.9187
 30
0.0
 11
4.679
 21
0.9187
 31
0.0
  0
LINE
  5
2AB
100
AcDbEntity
  8
10188XRPL_A_SMT
390
0
  6
CONTINUOUS2
 62
     1
100
AcDbLine
 10
4.929
 20
0.9178
 30
0.0
 11
4.679
 21
0.9178
 31
0.0
  0
LINE
  5
2AC
100
AcDbEntity
  8
10188XRPL_A_SMT
390
0
  6
CONTINUOUS2
 62
     1
100
AcDbLine
 10
4.929
 20
0.9169
 30
0.0
 11
4.679
 21
0.9169
 31
0.0
  0
LINE
  5
2AD
100
AcDbEntity
  8
10188XRPL_A_SMT
390
0
  6
CONTINUOUS2
 62
     1
100
AcDbLine
 10
4.929
 20
0.916
 30
0.0
 11
4.679
 21
0.916
 31
0.0
  0
LINE
  5
2AE
100
AcDbEntity
  8
10188XRPL_A_SMT
390
0
  6
CONTINUOUS2
 62
     1
100
AcDbLine
 10
4.929
 20
0.9151
 30
0.0
 11
4.679
 21
0.9151
 31
0.0
  0
LINE
  5
2AF
100
AcDbEntity
  8
10188XRPL_A_SMT
390
0
  6
CONTINUOUS2
 62
     1
100
AcDbLine
 10
4.929
 20
0.9142
 30
0.0
 11
4.679
 21
0.9142
 31
0.0
  0
LINE
  5
2B0
100
AcDbEntity
  8
10188XRPL_A_SMT
390
0
  6
CONTINUOUS2
 62
     1
100
AcDbLine
 10
4.929
 20
0.9133
 30
0.0
 11
4.679
 21
0.9133
 31
0.0
  0
LINE
  5
2B1
100
AcDbEntity
  8
10188XRPL_A_SMT
390
0
  6
CONTINUOUS2
 62
     1
100
AcDbLine
 10
4.929
 20
0.9124
 30
0.0
 11
4.679
 21
0.9124
 31
0.0
  0
LINE
  5
2B2
100
AcDbEntity
  8
10188XRPL_A_SMT
390
0
  6
CONTINUOUS2
 62
     1
100
AcDbLine
 10
4.929
 20
0.9115
 30
0.0
 11
4.679
 21
0.9115
 31
0.0
  0
LINE
  5
2B3
100
AcDbEntity
  8
10188XRPL_A_SMT
390
0
  6
CONTINUOUS2
 62
     1
100
AcDbLine
 10
4.929
 20
0.9106
 30
0.0
 11
4.679
 21
0.9106
 31
0.0
  0
LINE
  5
2B4
100
AcDbEntity
  8
10188XRPL_A_SMT
390
0
  6
CONTINUOUS2
 62
     1
100
AcDbLine
 10
4.929
 20
0.9097
 30
0.0
 11
4.679
 21
0.9097
 31
0.0
  0
LINE
  5
2B5
100
AcDbEntity
  8
10188XRPL_A_SMT
390
0
  6
CONTINUOUS2
 62
     1
100
AcDbLine
 10
4.929
 20
0.9088
 30
0.0
 11
4.679
 21
0.9088
 31
0.0
  0
LINE
  5
2B6
100
AcDbEntity
  8
10188XRPL_A_SMT
390
0
  6
CONTINUOUS2
 62
     1
100
AcDbLine
 10
4.929
 20
0.9079
 30
0.0
 11
4.679
 21
0.9079
 31
0.0
  0
LINE
  5
2B7
100
AcDbEntity
  8
10188XRPL_A_SMT
390
0
  6
CONTINUOUS2
 62
     1
100
AcDbLine
 10
4.929
 20
0.907
 30
0.0
 11
4.679
 21
0.907
 31
0.0
  0
LINE
  5
2B8
100
AcDbEntity
  8
10188XRPL_A_SMT
390
0
  6
CONTINUOUS2
 62
     1
100
AcDbLine
 10
4.929
 20
0.9061
 30
0.0
 11
4.679
 21
0.9061
 31
0.0
  0
LINE
  5
2B9
100
AcDbEntity
  8
10188XRPL_A_SMT
390
0
  6
CONTINUOUS2
 62
     1
100
AcDbLine
 10
4.929
 20
0.9052
 30
0.0
 11
4.679
 21
0.9052
 31
0.0
  0
LINE
  5
2BA
100
AcDbEntity
  8
10188XRPL_A_SMT
390
0
  6
CONTINUOUS2
 62
     1
100
AcDbLine
 10
4.929
 20
0.9043
 30
0.0
 11
4.679
 21
0.9043
 31
0.0
  0
LINE
  5
2BB
100
AcDbEntity
  8
10188XRPL_A_SMT
390
0
  6
CONTINUOUS2
 62
     1
100
AcDbLine
 10
4.929
 20
0.9034
 30
0.0
 11
4.679
 21
0.9034
 31
0.0
  0
LINE
  5
2BC
100
AcDbEntity
  8
10188XRPL_A_SMT
390
0
  6
CONTINUOUS2
 62
     1
100
AcDbLine
 10
4.929
 20
0.9025
 30
0.0
 11
4.679
 21
0.9025
 31
0.0
  0
LINE
  5
2BD
100
AcDbEntity
  8
10188XRPL_A_SMT
390
0
  6
CONTINUOUS2
 62
     1
100
AcDbLine
 10
4.929
 20
0.9016
 30
0.0
 11
4.679
 21
0.9016
 31
0.0
  0
LINE
  5
2BE
100
AcDbEntity
  8
10188XRPL_A_SMT
390
0
  6
CONTINUOUS2
 62
     1
100
AcDbLine
 10
4.929
 20
0.9007
 30
0.0
 11
4.679
 21
0.9007
 31
0.0
  0
LINE
  5
2BF
100
AcDbEntity
  8
10188XRPL_A_SMT
390
0
  6
CONTINUOUS2
 62
     1
100
AcDbLine
 10
4.929
 20
0.8998
 30
0.0
 11
4.679
 21
0.8998
 31
0.0
  0
LINE
  5
2C0
100
AcDbEntity
  8
10188XRPL_A_SMT
390
0
  6
CONTINUOUS2
 62
     1
100
AcDbLine
 10
4.929
 20
0.8989
 30
0.0
 11
4.679
 21
0.8989
 31
0.0
  0
LINE
  5
2C1
100
AcDbEntity
  8
10188XRPL_A_SMT
390
0
  6
CONTINUOUS2
 62
     1
100
AcDbLine
 10
4.929
 20
0.898
 30
0.0
 11
4.679
 21
0.898
 31
0.0
  0
LINE
  5
2C2
100
AcDbEntity
  8
10188XRPL_A_SMT
390
0
  6
CONTINUOUS2
 62
     1
100
AcDbLine
 10
4.929
 20
0.8971
 30
0.0
 11
4.679
 21
0.8971
 31
0.0
  0
LINE
  5
2C3
100
AcDbEntity
  8
10188XRPL_A_SMT
390
0
  6
CONTINUOUS2
 62
     1
100
AcDbLine
 10
4.929
 20
0.8962
 30
0.0
 11
4.679
 21
0.8962
 31
0.0
  0
LINE
  5
2C4
100
AcDbEntity
  8
10188XRPL_A_SMT
390
0
  6
CONTINUOUS2
 62
     1
100
AcDbLine
 10
4.929
 20
0.8953
 30
0.0
 11
4.679
 21
0.8953
 31
0.0
  0
LINE
  5
2C5
100
AcDbEntity
  8
10188XRPL_A_SMT
390
0
  6
CONTINUOUS2
 62
     1
100
AcDbLine
 10
4.929
 20
0.8944
 30
0.0
 11
4.679
 21
0.8944
 31
0.0
  0
LINE
  5
2C6
100
AcDbEntity
  8
10188XRPL_A_SMT
390
0
  6
CONTINUOUS2
 62
     1
100
AcDbLine
 10
4.929
 20
0.8935
 30
0.0
 11
4.679
 21
0.8935
 31
0.0
  0
LINE
  5
2C7
100
AcDbEntity
  8
10188XRPL_A_SMT
390
0
  6
CONTINUOUS2
 62
     1
100
AcDbLine
 10
4.929
 20
0.8926
 30
0.0
 11
4.679
 21
0.8926
 31
0.0
  0
LINE
  5
2C8
100
AcDbEntity
  8
10188XRPL_A_SMT
390
0
  6
CONTINUOUS2
 62
     1
100
AcDbLine
 10
4.929
 20
0.8917
 30
0.0
 11
4.679
 21
0.8917
 31
0.0
  0
LINE
  5
2C9
100
AcDbEntity
  8
10188XRPL_A_SMT
390
0
  6
CONTINUOUS2
 62
     1
100
AcDbLine
 10
4.929
 20
0.8908
 30
0.0
 11
4.679
 21
0.8908
 31
0.0
  0
LINE
  5
2CA
100
AcDbEntity
  8
10188XRPL_A_SMT
390
0
  6
CONTINUOUS2
 62
     1
100
AcDbLine
 10
4.929
 20
0.8899
 30
0.0
 11
4.679
 21
0.8899
 31
0.0
  0
LINE
  5
2CB
100
AcDbEntity
  8
10188XRPL_A_SMT
390
0
  6
CONTINUOUS2
 62
     1
100
AcDbLine
 10
4.929
 20
0.889
 30
0.0
 11
4.679
 21
0.889
 31
0.0
  0
LINE
  5
2CC
100
AcDbEntity
  8
10188XRPL_A_SMT
390
0
  6
CONTINUOUS2
 62
     1
100
AcDbLine
 10
4.929
 20
0.8881
 30
0.0
 11
4.679
 21
0.8881
 31
0.0
  0
LINE
  5
2CD
100
AcDbEntity
  8
10188XRPL_A_SMT
390
0
  6
CONTINUOUS2
 62
     1
100
AcDbLine
 10
4.929
 20
0.8872
 30
0.0
 11
4.679
 21
0.8872
 31
0.0
  0
LINE
  5
2CE
100
AcDbEntity
  8
10188XRPL_A_SMT
390
0
  6
CONTINUOUS2
 62
     1
100
AcDbLine
 10
4.929
 20
0.8863
 30
0.0
 11
4.679
 21
0.8863
 31
0.0
  0
LINE
  5
2CF
100
AcDbEntity
  8
10188XRPL_A_SMT
390
0
  6
CONTINUOUS2
 62
     1
100
AcDbLine
 10
4.929
 20
0.8854
 30
0.0
 11
4.679
 21
0.8854
 31
0.0
  0
LINE
  5
2D0
100
AcDbEntity
  8
10188XRPL_A_SMT
390
0
  6
CONTINUOUS2
 62
     1
100
AcDbLine
 10
4.929
 20
0.8845
 30
0.0
 11
4.679
 21
0.8845
 31
0.0
  0
LINE
  5
2D1
100
AcDbEntity
  8
10188XRPL_A_SMT
390
0
  6
CONTINUOUS2
 62
     1
100
AcDbLine
 10
4.929
 20
0.8836
 30
0.0
 11
4.679
 21
0.8836
 31
0.0
  0
LINE
  5
2D2
100
AcDbEntity
  8
10188XRPL_A_SMT
390
0
  6
CONTINUOUS2
 62
     1
100
AcDbLine
 10
4.929
 20
0.8827
 30
0.0
 11
4.679
 21
0.8827
 31
0.0
  0
LINE
  5
2D3
100
AcDbEntity
  8
10188XRPL_A_SMT
390
0
  6
CONTINUOUS2
 62
     1
100
AcDbLine
 10
4.929
 20
0.8818
 30
0.0
 11
4.679
 21
0.8818
 31
0.0
  0
LINE
  5
2D4
100
AcDbEntity
  8
10188XRPL_A_SMT
390
0
  6
CONTINUOUS2
 62
     1
100
AcDbLine
 10
4.929
 20
0.8809
 30
0.0
 11
4.679
 21
0.8809
 31
0.0
  0
LINE
  5
2D5
100
AcDbEntity
  8
10188XRPL_A_SMT
390
0
  6
CONTINUOUS2
 62
     1
100
AcDbLine
 10
4.929
 20
0.88
 30
0.0
 11
4.679
 21
0.88
 31
0.0
  0
LINE
  5
2D6
100
AcDbEntity
  8
10188XRPL_A_SMT
390
0
  6
CONTINUOUS2
 62
     1
100
AcDbLine
 10
4.929
 20
0.8791
 30
0.0
 11
4.679
 21
0.8791
 31
0.0
  0
LINE
  5
2D7
100
AcDbEntity
  8
10188XRPL_A_SMT
390
0
  6
CONTINUOUS2
 62
     1
100
AcDbLine
 10
4.929
 20
0.8782
 30
0.0
 11
4.679
 21
0.8782
 31
0.0
  0
LINE
  5
2D8
100
AcDbEntity
  8
10188XRPL_A_SMT
390
0
  6
CONTINUOUS2
 62
     1
100
AcDbLine
 10
4.929
 20
0.8773
 30
0.0
 11
4.679
 21
0.8773
 31
0.0
  0
LINE
  5
2D9
100
AcDbEntity
  8
10188XRPL_A_SMT
390
0
  6
CONTINUOUS2
 62
     1
100
AcDbLine
 10
4.929
 20
0.8764
 30
0.0
 11
4.679
 21
0.8764
 31
0.0
  0
LINE
  5
2DA
100
AcDbEntity
  8
10188XRPL_A_SMT
390
0
  6
CONTINUOUS2
 62
     1
100
AcDbLine
 10
4.929
 20
0.8755
 30
0.0
 11
4.679
 21
0.8755
 31
0.0
  0
LINE
  5
2DB
100
AcDbEntity
  8
10188XRPL_A_SMT
390
0
  6
CONTINUOUS2
 62
     1
100
AcDbLine
 10
4.929
 20
0.8746
 30
0.0
 11
4.679
 21
0.8746
 31
0.0
  0
LINE
  5
2DC
100
AcDbEntity
  8
10188XRPL_A_SMT
390
0
  6
CONTINUOUS2
 62
     1
100
AcDbLine
 10
4.929
 20
0.8737
 30
0.0
 11
4.679
 21
0.8737
 31
0.0
  0
LINE
  5
2DD
100
AcDbEntity
  8
10188XRPL_A_SMT
390
0
  6
CONTINUOUS2
 62
     1
100
AcDbLine
 10
4.929
 20
0.8728
 30
0.0
 11
4.679
 21
0.8728
 31
0.0
  0
LINE
  5
2DE
100
AcDbEntity
  8
10188XRPL_A_SMT
390
0
  6
CONTINUOUS2
 62
     1
100
AcDbLine
 10
4.929
 20
0.8719
 30
0.0
 11
4.679
 21
0.8719
 31
0.0
  0
LINE
  5
2DF
100
AcDbEntity
  8
10188XRPL_A_SMT
390
0
  6
CONTINUOUS2
 62
     1
100
AcDbLine
 10
4.929
 20
0.871
 30
0.0
 11
4.679
 21
0.871
 31
0.0
  0
LINE
  5
2E0
100
AcDbEntity
  8
10188XRPL_A_SMT
390
0
  6
CONTINUOUS2
 62
     1
100
AcDbLine
 10
4.929
 20
0.8701
 30
0.0
 11
4.679
 21
0.8701
 31
0.0
  0
LINE
  5
2E1
100
AcDbEntity
  8
10188XRPL_A_SMT
390
0
  6
CONTINUOUS2
 62
     1
100
AcDbLine
 10
4.929
 20
0.8692
 30
0.0
 11
4.679
 21
0.8692
 31
0.0
  0
LINE
  5
2E2
100
AcDbEntity
  8
10188XRPL_A_SMT
390
0
  6
CONTINUOUS2
 62
     1
100
AcDbLine
 10
4.929
 20
0.8683
 30
0.0
 11
4.679
 21
0.8683
 31
0.0
  0
LINE
  5
2E3
100
AcDbEntity
  8
10188XRPL_A_SMT
390
0
  6
CONTINUOUS2
 62
     1
100
AcDbLine
 10
4.929
 20
0.8674
 30
0.0
 11
4.679
 21
0.8674
 31
0.0
  0
LINE
  5
2E4
100
AcDbEntity
  8
10188XRPL_A_SMT
390
0
  6
CONTINUOUS2
 62
     1
100
AcDbLine
 10
4.929
 20
0.8665
 30
0.0
 11
4.679
 21
0.8665
 31
0.0
  0
LINE
  5
2E5
100
AcDbEntity
  8
10188XRPL_A_SMT
390
0
  6
CONTINUOUS2
 62
     1
100
AcDbLine
 10
4.929
 20
0.8656
 30
0.0
 11
4.679
 21
0.8656
 31
0.0
  0
LINE
  5
2E6
100
AcDbEntity
  8
10188XRPL_A_SMT
390
0
  6
CONTINUOUS2
 62
     1
100
AcDbLine
 10
4.929
 20
0.8647
 30
0.0
 11
4.679
 21
0.8647
 31
0.0
  0
LINE
  5
2E7
100
AcDbEntity
  8
10188XRPL_A_SMT
390
0
  6
CONTINUOUS2
 62
     1
100
AcDbLine
 10
4.929
 20
0.8638
 30
0.0
 11
4.679
 21
0.8638
 31
0.0
  0
LINE
  5
2E8
100
AcDbEntity
  8
10188XRPL_A_SMT
390
0
  6
CONTINUOUS2
 62
     1
100
AcDbLine
 10
4.929
 20
0.8629
 30
0.0
 11
4.679
 21
0.8629
 31
0.0
  0
LINE
  5
2E9
100
AcDbEntity
  8
10188XRPL_A_SMT
390
0
  6
CONTINUOUS2
 62
     1
100
AcDbLine
 10
4.929
 20
0.862
 30
0.0
 11
4.679
 21
0.862
 31
0.0
  0
LINE
  5
2EA
100
AcDbEntity
  8
10188XRPL_A_SMT
390
0
  6
CONTINUOUS2
 62
     1
100
AcDbLine
 10
4.929
 20
0.8611
 30
0.0
 11
4.679
 21
0.8611
 31
0.0
  0
LINE
  5
2EB
100
AcDbEntity
  8
10188XRPL_A_SMT
390
0
  6
CONTINUOUS2
 62
     1
100
AcDbLine
 10
4.929
 20
0.8602
 30
0.0
 11
4.679
 21
0.8602
 31
0.0
  0
LINE
  5
2EC
100
AcDbEntity
  8
10188XRPL_A_SMT
390
0
  6
CONTINUOUS2
 62
     1
100
AcDbLine
 10
4.929
 20
0.8593
 30
0.0
 11
4.679
 21
0.8593
 31
0.0
  0
LINE
  5
2ED
100
AcDbEntity
  8
10188XRPL_A_SMT
390
0
  6
CONTINUOUS2
 62
     1
100
AcDbLine
 10
4.929
 20
0.8584
 30
0.0
 11
4.679
 21
0.8584
 31
0.0
  0
LINE
  5
2EE
100
AcDbEntity
  8
10188XRPL_A_SMT
390
0
  6
CONTINUOUS2
 62
     1
100
AcDbLine
 10
4.929
 20
0.8575
 30
0.0
 11
4.679
 21
0.8575
 31
0.0
  0
LINE
  5
2EF
100
AcDbEntity
  8
10188XRPL_A_SMT
390
0
  6
CONTINUOUS2
 62
     1
100
AcDbLine
 10
4.929
 20
0.8566
 30
0.0
 11
4.679
 21
0.8566
 31
0.0
  0
LINE
  5
2F0
100
AcDbEntity
  8
10188XRPL_A_SMT
390
0
  6
CONTINUOUS2
 62
     1
100
AcDbLine
 10
4.929
 20
0.8557
 30
0.0
 11
4.679
 21
0.8557
 31
0.0
  0
LINE
  5
2F1
100
AcDbEntity
  8
10188XRPL_A_SMT
390
0
  6
CONTINUOUS2
 62
     1
100
AcDbLine
 10
4.929
 20
0.8548
 30
0.0
 11
4.679
 21
0.8548
 31
0.0
  0
LINE
  5
2F2
100
AcDbEntity
  8
10188XRPL_A_SMT
390
0
  6
CONTINUOUS2
 62
     1
100
AcDbLine
 10
4.929
 20
0.8539
 30
0.0
 11
4.679
 21
0.8539
 31
0.0
  0
LINE
  5
2F3
100
AcDbEntity
  8
10188XRPL_A_SMT
390
0
  6
CONTINUOUS2
 62
     1
100
AcDbLine
 10
4.929
 20
0.853
 30
0.0
 11
4.679
 21
0.853
 31
0.0
  0
LINE
  5
2F4
100
AcDbEntity
  8
10188XRPL_A_SMT
390
0
  6
CONTINUOUS2
 62
     1
100
AcDbLine
 10
4.929
 20
0.8521
 30
0.0
 11
4.679
 21
0.8521
 31
0.0
  0
LINE
  5
2F5
100
AcDbEntity
  8
10188XRPL_A_SMT
390
0
  6
CONTINUOUS2
 62
     1
100
AcDbLine
 10
4.929
 20
0.8512
 30
0.0
 11
4.679
 21
0.8512
 31
0.0
  0
LINE
  5
2F6
100
AcDbEntity
  8
10188XRPL_A_SMT
390
0
  6
CONTINUOUS2
 62
     1
100
AcDbLine
 10
4.929
 20
0.8503
 30
0.0
 11
4.679
 21
0.8503
 31
0.0
  0
LINE
  5
2F7
100
AcDbEntity
  8
10188XRPL_A_SMT
390
0
  6
CONTINUOUS2
 62
     1
100
AcDbLine
 10
4.929
 20
0.8494
 30
0.0
 11
4.679
 21
0.8494
 31
0.0
  0
LINE
  5
2F8
100
AcDbEntity
  8
10188XRPL_A_SMT
390
0
  6
CONTINUOUS2
 62
     1
100
AcDbLine
 10
4.929
 20
0.8485
 30
0.0
 11
4.679
 21
0.8485
 31
0.0
  0
LINE
  5
2F9
100
AcDbEntity
  8
10188XRPL_A_SMT
390
0
  6
CONTINUOUS2
 62
     1
100
AcDbLine
 10
4.929
 20
0.8476
 30
0.0
 11
4.679
 21
0.8476
 31
0.0
  0
LINE
  5
2FA
100
AcDbEntity
  8
10188XRPL_A_SMT
390
0
  6
CONTINUOUS2
 62
     1
100
AcDbLine
 10
4.929
 20
0.8467
 30
0.0
 11
4.679
 21
0.8467
 31
0.0
  0
LINE
  5
2FB
100
AcDbEntity
  8
10188XRPL_A_SMT
390
0
  6
CONTINUOUS2
 62
     1
100
AcDbLine
 10
4.929
 20
0.8458
 30
0.0
 11
4.679
 21
0.8458
 31
0.0
  0
LINE
  5
2FC
100
AcDbEntity
  8
10188XRPL_A_SMT
390
0
  6
CONTINUOUS2
 62
     1
100
AcDbLine
 10
4.929
 20
0.8449
 30
0.0
 11
4.679
 21
0.8449
 31
0.0
  0
LINE
  5
2FD
100
AcDbEntity
  8
10188XRPL_A_SMT
390
0
  6
CONTINUOUS2
 62
     1
100
AcDbLine
 10
4.929
 20
0.844
 30
0.0
 11
4.679
 21
0.844
 31
0.0
  0
LINE
  5
2FE
100
AcDbEntity
  8
10188XRPL_A_SMT
390
0
  6
CONTINUOUS2
 62
     1
100
AcDbLine
 10
4.929
 20
0.8431
 30
0.0
 11
4.679
 21
0.8431
 31
0.0
  0
LINE
  5
2FF
100
AcDbEntity
  8
10188XRPL_A_SMT
390
0
  6
CONTINUOUS2
 62
     1
100
AcDbLine
 10
4.929
 20
0.8422
 30
0.0
 11
4.679
 21
0.8422
 31
0.0
  0
LINE
  5
300
100
AcDbEntity
  8
10188XRPL_A_SMT
390
0
  6
CONTINUOUS2
 62
     1
100
AcDbLine
 10
4.929
 20
0.8413
 30
0.0
 11
4.679
 21
0.8413
 31
0.0
  0
LINE
  5
301
100
AcDbEntity
  8
10188XRPL_A_SMT
390
0
  6
CONTINUOUS2
 62
     1
100
AcDbLine
 10
4.929
 20
0.8404
 30
0.0
 11
4.679
 21
0.8404
 31
0.0
  0
LINE
  5
302
100
AcDbEntity
  8
10188XRPL_A_SMT
390
0
  6
CONTINUOUS2
 62
     1
100
AcDbLine
 10
4.929
 20
0.8395
 30
0.0
 11
4.679
 21
0.8395
 31
0.0
  0
LINE
  5
303
100
AcDbEntity
  8
10188XRPL_A_SMT
390
0
  6
CONTINUOUS2
 62
     1
100
AcDbLine
 10
4.929
 20
0.8386
 30
0.0
 11
4.679
 21
0.8386
 31
0.0
  0
LINE
  5
304
100
AcDbEntity
  8
10188XRPL_A_SMT
390
0
  6
CONTINUOUS2
 62
     1
100
AcDbLine
 10
4.929
 20
0.8377
 30
0.0
 11
4.679
 21
0.8377
 31
0.0
  0
LINE
  5
305
100
AcDbEntity
  8
10188XRPL_A_SMT
390
0
  6
CONTINUOUS2
 62
     1
100
AcDbLine
 10
4.929
 20
0.8368
 30
0.0
 11
4.679
 21
0.8368
 31
0.0
  0
LINE
  5
306
100
AcDbEntity
  8
10188XRPL_A_SMT
390
0
  6
CONTINUOUS2
 62
     1
100
AcDbLine
 10
4.929
 20
0.8359
 30
0.0
 11
4.679
 21
0.8359
 31
0.0
  0
LINE
  5
307
100
AcDbEntity
  8
10188XRPL_A_SMT
390
0
  6
CONTINUOUS2
 62
     1
100
AcDbLine
 10
4.929
 20
0.835
 30
0.0
 11
4.679
 21
0.835
 31
0.0
  0
LINE
  5
308
100
AcDbEntity
  8
10188XRPL_A_SMT
390
0
  6
CONTINUOUS2
 62
     1
100
AcDbLine
 10
4.929
 20
0.8341
 30
0.0
 11
4.679
 21
0.8341
 31
0.0
  0
LINE
  5
309
100
AcDbEntity
  8
10188XRPL_A_SMT
390
0
  6
CONTINUOUS2
 62
     1
100
AcDbLine
 10
4.929
 20
0.8332
 30
0.0
 11
4.679
 21
0.8332
 31
0.0
  0
LINE
  5
30A
100
AcDbEntity
  8
10188XRPL_A_SMT
390
0
  6
CONTINUOUS2
 62
     1
100
AcDbLine
 10
4.929
 20
0.8323
 30
0.0
 11
4.679
 21
0.8323
 31
0.0
  0
LINE
  5
30B
100
AcDbEntity
  8
10188XRPL_A_SMT
390
0
  6
CONTINUOUS2
 62
     1
100
AcDbLine
 10
4.929
 20
0.8314
 30
0.0
 11
4.679
 21
0.8314
 31
0.0
  0
LINE
  5
30C
100
AcDbEntity
  8
10188XRPL_A_SMT
390
0
  6
CONTINUOUS2
 62
     1
100
AcDbLine
 10
4.929
 20
0.8305
 30
0.0
 11
4.679
 21
0.8305
 31
0.0
  0
LINE
  5
30D
100
AcDbEntity
  8
10188XRPL_A_SMT
390
0
  6
CONTINUOUS2
 62
     1
100
AcDbLine
 10
4.929
 20
0.8296
 30
0.0
 11
4.679
 21
0.8296
 31
0.0
  0
LINE
  5
30E
100
AcDbEntity
  8
10188XRPL_A_SMT
390
0
  6
CONTINUOUS2
 62
     1
100
AcDbLine
 10
4.929
 20
0.8287
 30
0.0
 11
4.679
 21
0.8287
 31
0.0
  0
LINE
  5
30F
100
AcDbEntity
  8
10188XRPL_A_SMT
390
0
  6
CONTINUOUS2
 62
     1
100
AcDbLine
 10
4.929
 20
0.8278
 30
0.0
 11
4.679
 21
0.8278
 31
0.0
  0
LINE
  5
310
100
AcDbEntity
  8
10188XRPL_A_SMT
390
0
  6
CONTINUOUS2
 62
     1
100
AcDbLine
 10
4.929
 20
0.8269
 30
0.0
 11
4.679
 21
0.8269
 31
0.0
  0
LINE
  5
311
100
AcDbEntity
  8
10188XRPL_A_SMT
390
0
  6
CONTINUOUS2
 62
     1
100
AcDbLine
 10
4.929
 20
0.826
 30
0.0
 11
4.679
 21
0.826
 31
0.0
  0
LINE
  5
312
100
AcDbEntity
  8
10188XRPL_A_SMT
390
0
  6
CONTINUOUS2
 62
     1
100
AcDbLine
 10
4.929
 20
0.8251
 30
0.0
 11
4.679
 21
0.8251
 31
0.0
  0
LINE
  5
313
100
AcDbEntity
  8
10188XRPL_A_SMT
390
0
  6
CONTINUOUS2
 62
     1
100
AcDbLine
 10
4.929
 20
0.8242
 30
0.0
 11
4.679
 21
0.8242
 31
0.0
  0
LINE
  5
314
100
AcDbEntity
  8
10188XRPL_A_SMT
390
0
  6
CONTINUOUS2
 62
     1
100
AcDbLine
 10
4.929
 20
0.8233
 30
0.0
 11
4.679
 21
0.8233
 31
0.0
  0
LINE
  5
315
100
AcDbEntity
  8
10188XRPL_A_SMT
390
0
  6
CONTINUOUS2
 62
     1
100
AcDbLine
 10
4.929
 20
0.8224
 30
0.0
 11
4.679
 21
0.8224
 31
0.0
  0
LINE
  5
316
100
AcDbEntity
  8
10188XRPL_A_SMT
390
0
  6
CONTINUOUS2
 62
     1
100
AcDbLine
 10
4.929
 20
0.8215
 30
0.0
 11
4.679
 21
0.8215
 31
0.0
  0
LINE
  5
317
100
AcDbEntity
  8
10188XRPL_A_SMT
390
0
  6
CONTINUOUS2
 62
     1
100
AcDbLine
 10
4.929
 20
0.8206
 30
0.0
 11
4.679
 21
0.8206
 31
0.0
  0
LINE
  5
318
100
AcDbEntity
  8
10188XRPL_A_SMT
390
0
  6
CONTINUOUS2
 62
     1
100
AcDbLine
 10
4.929
 20
0.8197
 30
0.0
 11
4.679
 21
0.8197
 31
0.0
  0
LINE
  5
319
100
AcDbEntity
  8
10188XRPL_A_SMT
390
0
  6
CONTINUOUS2
 62
     1
100
AcDbLine
 10
4.929
 20
0.8188
 30
0.0
 11
4.679
 21
0.8188
 31
0.0
  0
LINE
  5
31A
100
AcDbEntity
  8
10188XRPL_A_SMT
390
0
  6
CONTINUOUS2
 62
     1
100
AcDbLine
 10
4.929
 20
0.8179
 30
0.0
 11
4.679
 21
0.8179
 31
0.0
  0
LINE
  5
31B
100
AcDbEntity
  8
10188XRPL_A_SMT
390
0
  6
CONTINUOUS2
 62
     1
100
AcDbLine
 10
4.929
 20
0.817
 30
0.0
 11
4.679
 21
0.817
 31
0.0
  0
LINE
  5
31C
100
AcDbEntity
  8
10188XRPL_A_SMT
390
0
  6
CONTINUOUS2
 62
     1
100
AcDbLine
 10
4.929
 20
0.8161
 30
0.0
 11
4.679
 21
0.8161
 31
0.0
  0
LINE
  5
31D
100
AcDbEntity
  8
10188XRPL_A_SMT
390
0
  6
CONTINUOUS2
 62
     1
100
AcDbLine
 10
4.929
 20
0.8152
 30
0.0
 11
4.679
 21
0.8152
 31
0.0
  0
LINE
  5
31E
100
AcDbEntity
  8
10188XRPL_A_SMT
390
0
  6
CONTINUOUS2
 62
     1
100
AcDbLine
 10
4.929
 20
0.8143
 30
0.0
 11
4.679
 21
0.8143
 31
0.0
  0
LINE
  5
31F
100
AcDbEntity
  8
10188XRPL_A_SMT
390
0
  6
CONTINUOUS2
 62
     1
100
AcDbLine
 10
4.929
 20
0.8134
 30
0.0
 11
4.679
 21
0.8134
 31
0.0
  0
LINE
  5
320
100
AcDbEntity
  8
10188XRPL_A_SMT
390
0
  6
CONTINUOUS2
 62
     1
100
AcDbLine
 10
4.929
 20
0.8125
 30
0.0
 11
4.679
 21
0.8125
 31
0.0
  0
LINE
  5
321
100
AcDbEntity
  8
10188XRPL_A_SMT
390
0
  6
CONTINUOUS2
 62
     1
100
AcDbLine
 10
4.929
 20
0.8116
 30
0.0
 11
4.679
 21
0.8116
 31
0.0
  0
LINE
  5
322
100
AcDbEntity
  8
10188XRPL_A_SMT
390
0
  6
CONTINUOUS2
 62
     1
100
AcDbLine
 10
4.929
 20
0.8107
 30
0.0
 11
4.679
 21
0.8107
 31
0.0
  0
LINE
  5
323
100
AcDbEntity
  8
10188XRPL_A_SMT
390
0
  6
CONTINUOUS2
 62
     1
100
AcDbLine
 10
4.929
 20
0.8098
 30
0.0
 11
4.679
 21
0.8098
 31
0.0
  0
LINE
  5
324
100
AcDbEntity
  8
10188XRPL_A_SMT
390
0
  6
CONTINUOUS2
 62
     1
100
AcDbLine
 10
4.929
 20
0.8089
 30
0.0
 11
4.679
 21
0.8089
 31
0.0
  0
LINE
  5
325
100
AcDbEntity
  8
10188XRPL_A_SMT
390
0
  6
CONTINUOUS2
 62
     1
100
AcDbLine
 10
4.929
 20
0.808
 30
0.0
 11
4.679
 21
0.808
 31
0.0
  0
LINE
  5
326
100
AcDbEntity
  8
10188XRPL_A_SMT
390
0
  6
CONTINUOUS2
 62
     1
100
AcDbLine
 10
4.929
 20
0.8071
 30
0.0
 11
4.679
 21
0.8071
 31
0.0
  0
LINE
  5
327
100
AcDbEntity
  8
10188XRPL_A_SMT
390
0
  6
CONTINUOUS2
 62
     1
100
AcDbLine
 10
4.929
 20
0.8062
 30
0.0
 11
4.679
 21
0.8062
 31
0.0
  0
LINE
  5
328
100
AcDbEntity
  8
10188XRPL_A_SMT
390
0
  6
CONTINUOUS2
 62
     1
100
AcDbLine
 10
4.929
 20
0.8053
 30
0.0
 11
4.679
 21
0.8053
 31
0.0
  0
LINE
  5
329
100
AcDbEntity
  8
10188XRPL_A_SMT
390
0
  6
CONTINUOUS2
 62
     1
100
AcDbLine
 10
4.929
 20
0.8044
 30
0.0
 11
4.679
 21
0.8044
 31
0.0
  0
LINE
  5
32A
100
AcDbEntity
  8
10188XRPL_A_SMT
390
0
  6
CONTINUOUS2
 62
     1
100
AcDbLine
 10
4.929
 20
0.8035
 30
0.0
 11
4.679
 21
0.8035
 31
0.0
  0
LINE
  5
32B
100
AcDbEntity
  8
10188XRPL_A_SMT
390
0
  6
CONTINUOUS2
 62
     1
100
AcDbLine
 10
4.929
 20
0.8026
 30
0.0
 11
4.679
 21
0.8026
 31
0.0
  0
LINE
  5
32C
100
AcDbEntity
  8
10188XRPL_A_SMT
390
0
  6
CONTINUOUS2
 62
     1
100
AcDbLine
 10
4.929
 20
0.8017
 30
0.0
 11
4.679
 21
0.8017
 31
0.0
  0
LINE
  5
32D
100
AcDbEntity
  8
10188XRPL_A_SMT
390
0
  6
CONTINUOUS2
 62
     1
100
AcDbLine
 10
4.929
 20
0.8008
 30
0.0
 11
4.679
 21
0.8008
 31
0.0
  0
LINE
  5
32E
100
AcDbEntity
  8
10188XRPL_A_SMT
390
0
  6
CONTINUOUS2
 62
     1
100
AcDbLine
 10
4.929
 20
0.7999
 30
0.0
 11
4.679
 21
0.7999
 31
0.0
  0
LINE
  5
32F
100
AcDbEntity
  8
10188XRPL_A_SMT
390
0
  6
CONTINUOUS2
 62
     1
100
AcDbLine
 10
4.929
 20
0.799
 30
0.0
 11
4.679
 21
0.799
 31
0.0
  0
LINE
  5
330
100
AcDbEntity
  8
10188XRPL_A_SMT
390
0
  6
CONTINUOUS2
 62
     1
100
AcDbLine
 10
4.929
 20
0.7981
 30
0.0
 11
4.679
 21
0.7981
 31
0.0
  0
LINE
  5
331
100
AcDbEntity
  8
10188XRPL_A_SMT
390
0
  6
CONTINUOUS2
 62
     1
100
AcDbLine
 10
4.929
 20
0.7972
 30
0.0
 11
4.679
 21
0.7972
 31
0.0
  0
LINE
  5
332
100
AcDbEntity
  8
10188XRPL_A_SMT
390
0
  6
CONTINUOUS2
 62
     1
100
AcDbLine
 10
4.929
 20
0.7963
 30
0.0
 11
4.679
 21
0.7963
 31
0.0
  0
LINE
  5
333
100
AcDbEntity
  8
10188XRPL_A_SMT
390
0
  6
CONTINUOUS2
 62
     1
100
AcDbLine
 10
4.929
 20
0.7954
 30
0.0
 11
4.679
 21
0.7954
 31
0.0
  0
LINE
  5
334
100
AcDbEntity
  8
10188XRPL_A_SMT
390
0
  6
CONTINUOUS2
 62
     1
100
AcDbLine
 10
4.929
 20
0.7945
 30
0.0
 11
4.679
 21
0.7945
 31
0.0
  0
LINE
  5
335
100
AcDbEntity
  8
10188XRPL_A_SMT
390
0
  6
CONTINUOUS2
 62
     1
100
AcDbLine
 10
4.929
 20
0.7936
 30
0.0
 11
4.679
 21
0.7936
 31
0.0
  0
LINE
  5
336
100
AcDbEntity
  8
10188XRPL_A_SMT
390
0
  6
CONTINUOUS2
 62
     1
100
AcDbLine
 10
4.929
 20
0.7927
 30
0.0
 11
4.679
 21
0.7927
 31
0.0
  0
LINE
  5
337
100
AcDbEntity
  8
10188XRPL_A_SMT
390
0
  6
CONTINUOUS2
 62
     1
100
AcDbLine
 10
4.929
 20
0.7918
 30
0.0
 11
4.679
 21
0.7918
 31
0.0
  0
LINE
  5
338
100
AcDbEntity
  8
10188XRPL_A_SMT
390
0
  6
CONTINUOUS2
 62
     1
100
AcDbLine
 10
4.929
 20
0.7909
 30
0.0
 11
4.679
 21
0.7909
 31
0.0
  0
LINE
  5
339
100
AcDbEntity
  8
10188XRPL_A_SMT
390
0
  6
CONTINUOUS2
 62
     1
100
AcDbLine
 10
4.929
 20
0.79
 30
0.0
 11
4.679
 21
0.79
 31
0.0
  0
LINE
  5
33A
100
AcDbEntity
  8
10188XRPL_A_SMT
390
0
  6
CONTINUOUS2
 62
     1
100
AcDbLine
 10
4.929
 20
0.7891
 30
0.0
 11
4.679
 21
0.7891
 31
0.0
  0
LINE
  5
33B
100
AcDbEntity
  8
10188XRPL_A_SMT
390
0
  6
CONTINUOUS2
 62
     1
100
AcDbLine
 10
4.929
 20
0.7882
 30
0.0
 11
4.679
 21
0.7882
 31
0.0
  0
LINE
  5
33C
100
AcDbEntity
  8
10188XRPL_A_SMT
390
0
  6
CONTINUOUS2
 62
     1
100
AcDbLine
 10
4.929
 20
0.7873
 30
0.0
 11
4.679
 21
0.7873
 31
0.0
  0
LINE
  5
33D
100
AcDbEntity
  8
10188XRPL_A_SMT
390
0
  6
CONTINUOUS2
 62
     1
100
AcDbLine
 10
4.929
 20
0.7864
 30
0.0
 11
4.679
 21
0.7864
 31
0.0
  0
LINE
  5
33E
100
AcDbEntity
  8
10188XRPL_A_SMT
390
0
  6
CONTINUOUS2
 62
     1
100
AcDbLine
 10
4.929
 20
0.7855
 30
0.0
 11
4.679
 21
0.7855
 31
0.0
  0
LINE
  5
33F
100
AcDbEntity
  8
10188XRPL_A_SMT
390
0
  6
CONTINUOUS2
 62
     1
100
AcDbLine
 10
4.929
 20
0.7846
 30
0.0
 11
4.679
 21
0.7846
 31
0.0
  0
LINE
  5
340
100
AcDbEntity
  8
10188XRPL_A_SMT
390
0
  6
CONTINUOUS2
 62
     1
100
AcDbLine
 10
4.929
 20
0.7837
 30
0.0
 11
4.679
 21
0.7837
 31
0.0
  0
LINE
  5
341
100
AcDbEntity
  8
10188XRPL_A_SMT
390
0
  6
CONTINUOUS2
 62
     1
100
AcDbLine
 10
4.929
 20
0.7828
 30
0.0
 11
4.679
 21
0.7828
 31
0.0
  0
LINE
  5
342
100
AcDbEntity
  8
10188XRPL_A_SMT
390
0
  6
CONTINUOUS2
 62
     1
100
AcDbLine
 10
4.929
 20
0.7819
 30
0.0
 11
4.679
 21
0.7819
 31
0.0
  0
LINE
  5
343
100
AcDbEntity
  8
10188XRPL_A_SMT
390
0
  6
CONTINUOUS2
 62
     1
100
AcDbLine
 10
4.929
 20
0.781
 30
0.0
 11
4.679
 21
0.781
 31
0.0
  0
LINE
  5
344
100
AcDbEntity
  8
10188XRPL_A_SMT
390
0
  6
CONTINUOUS2
 62
     1
100
AcDbLine
 10
4.929
 20
0.7801
 30
0.0
 11
4.679
 21
0.7801
 31
0.0
  0
LINE
  5
345
100
AcDbEntity
  8
10188XRPL_A_SMT
390
0
  6
CONTINUOUS2
 62
     1
100
AcDbLine
 10
4.929
 20
0.7792
 30
0.0
 11
4.679
 21
0.7792
 31
0.0
  0
LINE
  5
346
100
AcDbEntity
  8
10188XRPL_A_SMT
390
0
  6
CONTINUOUS2
 62
     1
100
AcDbLine
 10
4.929
 20
0.7783
 30
0.0
 11
4.679
 21
0.7783
 31
0.0
  0
LINE
  5
348
100
AcDbEntity
  8
10188XRPL_A_SST
390
0
  6
CONTINUOUS2
 62
     4
100
AcDbLine
 10
0.0903
 20
1.2067
 30
0.0
 11
0.0903
 21
1.1667
 31
0.0
  0
LINE
  5
349
100
AcDbEntity
  8
10188XRPL_A_SST
390
0
  6
CONTINUOUS2
 62
     4
100
AcDbLine
 10
0.0903
 20
1.1667
 30
0.0
 11
0.0837
 21
1.1733
 31
0.0
  0
LINE
  5
34A
100
AcDbEntity
  8
10188XRPL_A_SST
390
0
  6
CONTINUOUS2
 62
     4
100
AcDbLine
 10
0.0837
 20
1.1733
 30
0.0
 11
0.0703
 21
1.2
 31
0.0
  0
LINE
  5
34B
100
AcDbEntity
  8
10188XRPL_A_SST
390
0
  6
CONTINUOUS2
 62
     4
100
AcDbLine
 10
0.0703
 20
1.2
 30
0.0
 11
0.0637
 21
1.2067
 31
0.0
  0
LINE
  5
34C
100
AcDbEntity
  8
10188XRPL_A_SST
390
0
  6
CONTINUOUS2
 62
     4
100
AcDbLine
 10
0.0637
 20
1.2067
 30
0.0
 11
0.0637
 21
1.1667
 31
0.0
  0
LINE
  5
34D
100
AcDbEntity
  8
10188XRPL_A_SST
390
0
  6
CONTINUOUS2
 62
     4
100
AcDbLine
 10
0.0443
 20
1.1667
 30
0.0
 11
0.031
 21
1.1667
 31
0.0
  0
LINE
  5
34E
100
AcDbEntity
  8
10188XRPL_A_SST
390
0
  6
CONTINUOUS2
 62
     4
100
AcDbLine
 10
0.0377
 20
1.1667
 30
0.0
 11
0.0376
 21
1.2067
 31
0.0
  0
LINE
  5
34F
100
AcDbEntity
  8
10188XRPL_A_SST
390
0
  6
CONTINUOUS2
 62
     4
100
AcDbLine
 10
0.0443
 20
1.2067
 30
0.0
 11
0.031
 21
1.2067
 31
0.0
  0
LINE
  5
350
100
AcDbEntity
  8
10188XRPL_A_SST
390
0
  6
CONTINUOUS2
 62
     4
100
AcDbLine
 10
4.8533
 20
0.9523
 30
0.0
 11
4.8533
 21
0.9889
 31
0.0
  0
LINE
  5
351
100
AcDbEntity
  8
10188XRPL_A_SST
390
0
  6
CONTINUOUS2
 62
     4
100
AcDbLine
 10
4.8655
 20
0.9889
 30
0.0
 11
4.841
 21
0.9889
 31
0.0
  0
LINE
  5
352
100
AcDbEntity
  8
10188XRPL_A_SST
390
0
  6
CONTINUOUS2
 62
     4
100
AcDbLine
 10
4.822
 20
0.9889
 30
0.0
 11
4.822
 21
0.9584
 31
0.0
  0
LINE
  5
353
100
AcDbEntity
  8
10188XRPL_A_SST
390
0
  6
CONTINUOUS2
 62
     4
100
AcDbLine
 10
4.822
 20
0.9584
 30
0.0
 11
4.8189
 21
0.9523
 31
0.0
  0
LINE
  5
354
100
AcDbEntity
  8
10188XRPL_A_SST
390
0
  6
CONTINUOUS2
 62
     4
100
AcDbLine
 10
4.8189
 20
0.9523
 30
0.0
 11
4.8006
 21
0.9523
 31
0.0
  0
LINE
  5
355
100
AcDbEntity
  8
10188XRPL_A_SST
390
0
  6
CONTINUOUS2
 62
     4
100
AcDbLine
 10
4.8006
 20
0.9523
 30
0.0
 11
4.7975
 21
0.9584
 31
0.0
  0
LINE
  5
356
100
AcDbEntity
  8
10188XRPL_A_SST
390
0
  6
CONTINUOUS2
 62
     4
100
AcDbLine
 10
4.7975
 20
0.9584
 30
0.0
 11
4.7975
 21
0.9889
 31
0.0
  0
LINE
  5
357
100
AcDbEntity
  8
10188XRPL_A_SST
390
0
  6
CONTINUOUS2
 62
     4
100
AcDbLine
 10
4.7571
 20
0.9523
 30
0.0
 11
4.754
 21
0.9584
 31
0.0
  0
LINE
  5
358
100
AcDbEntity
  8
10188XRPL_A_SST
390
0
  6
CONTINUOUS2
 62
     4
100
AcDbLine
 10
4.754
 20
0.9584
 30
0.0
 11
4.754
 21
0.9828
 31
0.0
  0
LINE
  5
359
100
AcDbEntity
  8
10188XRPL_A_SST
390
0
  6
CONTINUOUS2
 62
     4
100
AcDbLine
 10
4.754
 20
0.9828
 30
0.0
 11
4.7571
 21
0.9889
 31
0.0
  0
LINE
  5
35A
100
AcDbEntity
  8
10188XRPL_A_SST
390
0
  6
CONTINUOUS2
 62
     4
100
AcDbLine
 10
4.7571
 20
0.9889
 30
0.0
 11
4.7754
 21
0.9889
 31
0.0
  0
LINE
  5
35B
100
AcDbEntity
  8
10188XRPL_A_SST
390
0
  6
CONTINUOUS2
 62
     4
100
AcDbLine
 10
4.7754
 20
0.9889
 30
0.0
 11
4.7785
 21
0.9828
 31
0.0
  0
LINE
  5
35C
100
AcDbEntity
  8
10188XRPL_A_SST
390
0
  6
CONTINUOUS2
 62
     4
100
AcDbLine
 10
4.7785
 20
0.9828
 30
0.0
 11
4.7785
 21
0.9584
 31
0.0
  0
LINE
  5
35D
100
AcDbEntity
  8
10188XRPL_A_SST
390
0
  6
CONTINUOUS2
 62
     4
100
AcDbLine
 10
4.7785
 20
0.9584
 30
0.0
 11
4.7754
 21
0.9523
 31
0.0
  0
LINE
  5
35E
100
AcDbEntity
  8
10188XRPL_A_SST
390
0
  6
CONTINUOUS2
 62
     4
100
AcDbLine
 10
4.7754
 20
0.9523
 30
0.0
 11
4.7571
 21
0.9523
 31
0.0
  0
LINE
  5
360
100
AcDbEntity
  8
0
390
0
  6
CONTINUOUS2
 62
     3
100
AcDbLine
 10
0.0
 20
-0.001
 30
0.0
 11
0.0
 21
-0.167395
 31
0.0
210
0.0
220
0.0
230
1.0
  0
LINE
  5
361
100
AcDbEntity
  8
0
390
0
  6
CONTINUOUS2
 62
     3
100
AcDbLine
 10
0.0
 20
-0.167395
 30
0.0
 11
0.017848
 21
-0.333311
 31
0.0
210
0.0
220
0.0
230
1.0
  0
LINE
  5
362
100
AcDbEntity
  8
0
390
0
  6
CONTINUOUS2
 62
     3
100
AcDbLine
 10
0.017848
 20
-0.333311
 30
0.0
 11
0.142848
 21
-0.333311
 31
0.0
210
0.0
220
0.0
230
1.0
  0
MTEXT
  5
363
100
AcDbEntity
  8
0
390
0
  6
CONTINUOUS2
 62
     3
100
AcDbMText
 10
0.579322
 20
-0.333311
 30
0.0
 40
0.1
 41
0.0
 71
     5
 72
     1
  1
{\H0.100000;X 0.000, Y 0.000}
210
0.0
220
0.0
230
1.0
 73
     1
 44
1.0
  0
LINE
  5
364
100
AcDbEntity
  8
0
390
0
  6
CONTINUOUS2
 62
     3
100
AcDbLine
 10
0.04165
 20
-0.251
 30
0.0
 11
0.0
 21
-0.001
 31
0.0
210
0.0
220
0.0
230
1.0
  0
LINE
  5
365
100
AcDbEntity
  8
0
390
0
  6
CONTINUOUS2
 62
     3
100
AcDbLine
 10
-0.04165
 20
-0.251
 30
0.0
 11
0.0
 21
-0.001
 31
0.0
210
0.0
220
0.0
230
1.0
  0
LINE
  5
366
100
AcDbEntity
  8
0
390
0
  6
CONTINUOUS2
 62
     3
100
AcDbLine
 10
1.25
 20
0.215
 30
0.0
 11
1.149066
 21
0.215
 31
0.0
210
0.0
220
0.0
230
1.0
  0
LINE
  5
367
100
AcDbEntity
  8
0
390
0
  6
CONTINUOUS2
 62
     3
100
AcDbLine
 10
1.149066
 20
0.215
 30
0.0
 11
1.048134
 21
0.214081
 31
0.0
210
0.0
220
0.0
230
1.0
  0
LINE
  5
368
100
AcDbEntity
  8
0
390
0
  6
CONTINUOUS2
 62
     3
100
AcDbLine
 10
1.048134
 20
0.214081
 30
0.0
 11
0.923134
 21
0.214081
 31
0.0
210
0.0
220
0.0
230
1.0
  0
MTEXT
  5
369
100
AcDbEntity
  8
0
390
0
  6
CONTINUOUS2
 62
     3
100
AcDbMText
 10
0.511562
 20
0.214081
 30
0.0
 40
0.1
 41
0.0
 71
     5
 72
     1
  1
{\H0.100000;X 1.250, Y 0.216}
210
0.0
220
0.0
230
1.0
 73
     1
 44
1.0
  0
LINE
  5
36A
100
AcDbEntity
  8
0
390
0
  6
CONTINUOUS2
 62
     3
100
AcDbLine
 10
1.0
 20
0.17335
 30
0.0
 11
1.25
 21
0.215
 31
0.0
210
0.0
220
0.0
230
1.0
  0
LINE
  5
36B
100
AcDbEntity
  8
0
390
0
  6
CONTINUOUS2
 62
     3
100
AcDbLine
 10
1.0
 20
0.25665
 30
0.0
 11
1.25
 21
0.215
 31
0.0
210
0.0
220
0.0
230
1.0
  0
LINE
  5
36C
100
AcDbEntity
  8
0
390
0
  6
CONTINUOUS2
 62
     3
100
AcDbLine
 10
2.415
 20
0.215
 30
0.0
 11
2.47569
 21
0.215
 31
0.0
210
0.0
220
0.0
230
1.0
  0
LINE
  5
36D
100
AcDbEntity
  8
0
390
0
  6
CONTINUOUS2
 62
     3
100
AcDbLine
 10
2.47569
 20
0.215
 30
0.0
 11
2.536335
 21
0.218309
 31
0.0
210
0.0
220
0.0
230
1.0
  0
LINE
  5
36E
100
AcDbEntity
  8
0
390
0
  6
CONTINUOUS2
 62
     3
100
AcDbLine
 10
2.536335
 20
0.218309
 30
0.0
 11
2.661335
 21
0.218309
 31
0.0
210
0.0
220
0.0
230
1.0
  0
MTEXT
  5
36F
100
AcDbEntity
  8
0
390
0
  6
CONTINUOUS2
 62
     3
100
AcDbMText
 10
3.072907
 20
0.218309
 30
0.0
 40
0.1
 41
0.0
 71
     5
 72
     1
  1
{\H0.100000;X 2.415, Y 0.216}
210
0.0
220
0.0
230
1.0
 73
     1
 44
1.0
  0
LINE
  5
370
100
AcDbEntity
  8
0
390
0
  6
CONTINUOUS2
 62
     3
100
AcDbLine
 10
2.665
 20
0.25665
 30
0.0
 11
2.415
 21
0.215
 31
0.0
210
0.0
220
0.0
230
1.0
  0
LINE
  5
371
100
AcDbEntity
  8
0
390
0
  6
CONTINUOUS2
 62
     3
100
AcDbLine
 10
2.665
 20
0.17335
 30
0.0
 11
2.415
 21
0.215
 31
0.0
210
0.0
220
0.0
230
1.0
  0
LINE
  5
372
100
AcDbEntity
  8
0
390
0
  6
CONTINUOUS2
 62
     3
100
AcDbLine
 10
1.25
 20
1.763
 30
0.0
 11
1.128051
 21
1.763
 31
0.0
210
0.0
220
0.0
230
1.0
  0
LINE
  5
373
100
AcDbEntity
  8
0
390
0
  6
CONTINUOUS2
 62
     3
100
AcDbLine
 10
1.128051
 20
1.763
 30
0.0
 11
1.006102
 21
1.762275
 31
0.0
210
0.0
220
0.0
230
1.0
  0
LINE
  5
374
100
AcDbEntity
  8
0
390
0
  6
CONTINUOUS2
 62
     3
100
AcDbLine
 10
1.006102
 20
1.762275
 30
0.0
 11
0.881102
 21
1.762275
 31
0.0
210
0.0
220
0.0
230
1.0
  0
MTEXT
  5
375
100
AcDbEntity
  8
0
390
0
  6
CONTINUOUS2
 62
     3
100
AcDbMText
 10
0.46953
 20
1.762275
 30
0.0
 40
0.1
 41
0.0
 71
     5
 72
     1
  1
{\H0.100000;X 1.250, Y 1.764}
210
0.0
220
0.0
230
1.0
 73
     1
 44
1.0
  0
LINE
  5
376
100
AcDbEntity
  8
0
390
0
  6
CONTINUOUS2
 62
     3
100
AcDbLine
 10
1.0
 20
1.72135
 30
0.0
 11
1.25
 21
1.763
 31
0.0
210
0.0
220
0.0
230
1.0
  0
LINE
  5
377
100
AcDbEntity
  8
0
390
0
  6
CONTINUOUS2
 62
     3
100
AcDbLine
 10
1.0
 20
1.80465
 30
0.0
 11
1.25
 21
1.763
 31
0.0
210
0.0
220
0.0
230
1.0
  0
LINE
  5
378
100
AcDbEntity
  8
0
390
0
  6
CONTINUOUS2
 62
     3
100
AcDbLine
 10
2.185
 20
1.9
 30
0.0
 11
2.185
 21
1.630009
 31
0.0
210
0.0
220
0.0
230
1.0
  0
LINE
  5
379
100
AcDbEntity
  8
0
390
0
  6
CONTINUOUS2
 62
     3
100
AcDbLine
 10
2.185
 20
1.630009
 30
0.0
 11
2.256812
 21
1.364814
 31
0.0
210
0.0
220
0.0
230
1.0
  0
LINE
  5
37A
100
AcDbEntity
  8
0
390
0
  6
CONTINUOUS2
 62
     3
100
AcDbLine
 10
2.256812
 20
1.364814
 30
0.0
 11
2.381812
 21
1.364814
 31
0.0
210
0.0
220
0.0
230
1.0
  0
MTEXT
  5
37B
100
AcDbEntity
  8
0
390
0
  6
CONTINUOUS2
 62
     3
100
AcDbMText
 10
2.780933
 20
1.364814
 30
0.0
 40
0.1
 41
0.0
 71
     5
 72
     1
  1
{\H0.100000;X 2.185, Y 1.901}
210
0.0
220
0.0
230
1.0
 73
     1
 44
1.0
  0
LINE
  5
37C
100
AcDbEntity
  8
0
390
0
  6
CONTINUOUS2
 62
     3
100
AcDbLine
 10
2.22665
 20
1.65
 30
0.0
 11
2.185
 21
1.9
 31
0.0
210
0.0
220
0.0
230
1.0
  0
LINE
  5
37D
100
AcDbEntity
  8
0
390
0
  6
CONTINUOUS2
 62
     3
100
AcDbLine
 10
2.14335
 20
1.65
 30
0.0
 11
2.185
 21
1.9
 31
0.0
210
0.0
220
0.0
230
1.0
  0
LINE
  5
37E
100
AcDbEntity
  8
0
390
0
  6
CONTINUOUS2
 62
     3
100
AcDbLine
 10
3.1
 20
1.9
 30
0.0
 11
3.201447
 21
1.9
 31
0.0
210
0.0
220
0.0
230
1.0
  0
LINE
  5
37F
100
AcDbEntity
  8
0
390
0
  6
CONTINUOUS2
 62
     3
100
AcDbLine
 10
3.201447
 20
1.9
 30
0.0
 11
3.302875
 21
1.90284
 31
0.0
210
0.0
220
0.0
230
1.0
  0
LINE
  5
380
100
AcDbEntity
  8
0
390
0
  6
CONTINUOUS2
 62
     3
100
AcDbLine
 10
3.302875
 20
1.90284
 30
0.0
 11
3.427875
 21
1.90284
 31
0.0
210
0.0
220
0.0
230
1.0
  0
MTEXT
  5
381
100
AcDbEntity
  8
0
390
0
  6
CONTINUOUS2
 62
     3
100
AcDbMText
 10
3.826996
 20
1.90284
 30
0.0
 40
0.1
 41
0.0
 71
     5
 72
     1
  1
{\H0.100000;X 3.100, Y 1.901}
210
0.0
220
0.0
230
1.0
 73
     1
 44
1.0
  0
LINE
  5
382
100
AcDbEntity
  8
0
390
0
  6
CONTINUOUS2
 62
     3
100
AcDbLine
 10
3.35
 20
1.94165
 30
0.0
 11
3.1
 21
1.9
 31
0.0
210
0.0
220
0.0
230
1.0
  0
LINE
  5
383
100
AcDbEntity
  8
0
390
0
  6
CONTINUOUS2
 62
     3
100
AcDbLine
 10
3.35
 20
1.85835
 30
0.0
 11
3.1
 21
1.9
 31
0.0
210
0.0
220
0.0
230
1.0
  0
LINE
  5
384
100
AcDbEntity
  8
0
390
0
  6
CONTINUOUS2
 62
     3
100
AcDbLine
 10
4.45
 20
0.215
 30
0.0
 11
4.45
 21
0.488615
 31
0.0
210
0.0
220
0.0
230
1.0
  0
LINE
  5
385
100
AcDbEntity
  8
0
390
0
  6
CONTINUOUS2
 62
     3
100
AcDbLine
 10
4.45
 20
0.488615
 30
0.0
 11
4.374803
 21
0.757038
 31
0.0
210
0.0
220
0.0
230
1.0
  0
LINE
  5
386
100
AcDbEntity
  8
0
390
0
  6
CONTINUOUS2
 62
     3
100
AcDbLine
 10
4.374803
 20
0.757038
 30
0.0
 11
4.249803
 21
0.757038
 31
0.0
210
0.0
220
0.0
230
1.0
  0
MTEXT
  5
387
100
AcDbEntity
  8
0
390
0
  6
CONTINUOUS2
 62
     3
100
AcDbMText
 10
3.82578
 20
0.757038
 30
0.0
 40
0.1
 41
0.0
 71
     5
 72
     1
  1
{\H0.100000;X 4.450, Y 0.216}
210
0.0
220
0.0
230
1.0
 73
     1
 44
1.0
  0
LINE
  5
388
100
AcDbEntity
  8
0
390
0
  6
CONTINUOUS2
 62
     3
100
AcDbLine
 10
4.40835
 20
0.465
 30
0.0
 11
4.45
 21
0.215
 31
0.0
210
0.0
220
0.0
230
1.0
  0
LINE
  5
389
100
AcDbEntity
  8
0
390
0
  6
CONTINUOUS2
 62
     3
100
AcDbLine
 10
4.49165
 20
0.465
 30
0.0
 11
4.45
 21
0.215
 31
0.0
210
0.0
220
0.0
230
1.0
  0
DIMENSION
  5
394
100
AcDbEntity
  8
0
390
0
  6
CONTINUOUS2
 62
     3
100
AcDbDimension
  2
*D0
 10
2.475
 20
2.805194
 30
0.0
 11
2.475
 21
2.805194
 31
0.0
 70
     1
 71
     5
 72
     1
 41
1.0
 42
4.95
210
0.0
220
0.0
230
1.0
  3
Standard
100
AcDbAlignedDimension
 13
0.0
 23
2.374
 33
0.0
 14
4.95
 24
2.374
 34
0.0
1001
ACAD
1000
DSTYLE
1002
{
1070
    41
1040
0.25
1070
    42
1040
0.25
1070
    44
1040
0.125
1070
    47
1040
0.0005
1070
    48
1040
0.0005
1070
    78
1070
     1
1070
   140
1040
0.1
1070
   146
1040
0.5
1070
   174
1070
     1
1070
   271
1070
     3
1070
   272
1070
     3
1070
   284
1070
     1
1002
}
  0
DIMENSION
  5
39F
100
AcDbEntity
  8
0
390
0
  6
CONTINUOUS2
 62
     3
100
AcDbDimension
  2
*D1
 10
5.433273
 20
1.1865
 30
0.0
 11
5.433273
 21
1.1865
 31
0.0
 70
     1
 71
     5
 72
     1
 41
1.0
 42
2.375
210
0.0
220
0.0
230
1.0
  3
Standard
100
AcDbAlignedDimension
 13
4.95
 23
2.374
 33
0.0
 14
4.95
 24
-0.001
 34
0.0
1001
ACAD
1000
DSTYLE
1002
{
1070
    41
1040
0.25
1070
    42
1040
0.25
1070
    44
1040
0.125
1070
    47
1040
0.0005
1070
    48
1040
0.0005
1070
    78
1070
     1
1070
   140
1040
0.1
1070
   146
1040
0.5
1070
   174
1070
     1
1070
   271
1070
     3
1070
   272
1070
     3
1070
   284
1070
     1
1002
}
  0
ENDSEC
  0
SECTION
  2
OBJECTS
  0
DICTIONARY
  5
19
100
AcDbDictionary
280
     0
281
     1
  3
ACAD_GROUP
350
1A
  3
ACAD_MLINESTYLE
350
1B
  3
ACAD_LAYOUT
350
1E
  3
ACAD_PLOTSETTINGS
350
22
  3
ACAD_PLOTSTYLENAME
350
1F
  3
ACAD_WIPEOUT_VARS
350
23
  0
DICTIONARY
  5
1A
102
{ACAD_REACTORS
330
19
102
}
100
AcDbDictionary
280
     0
281
     1
  0
DICTIONARY
  5
1B
102
{ACAD_REACTORS
330
19
102
}
100
AcDbDictionary
280
     0
281
     1
  3
Standard
350
1C
  0
MLINESTYLE
  5
1C
102
{ACAD_REACTORS
330
1B
102
}
100
AcDbMlineStyle
  2
Standard
 70
     0
  3

 62
     0
 51
90.0
 52
90.0
 71
     2
 49
0.5
 62
   256
  6
ByLayer
 49
-0.5
 62
   256
  6
ByLayer
  0
ACDBDICTIONARYWDFLT
  5
1F
102
{ACAD_REACTORS
330
19
102
}
100
AcDbDictionary
281
     1
  3
Normal
350
1D
100
AcDbDictionaryWithDefault
340
1D
  0
ACDBPLACEHOLDER
  5
1D
102
{ACAD_REACTORS
330
1F
102
}
  0
LAYOUT
  5
20
102
{ACAD_REACTORS
330
1E
102
}
100
AcDbPlotSettings
  1

  2

  4

  6

 40
0.0
 41
0.0
 42
0.0
 43
0.0
 44
0.0
 45
0.0
 46
0.0
 47
0.0
 48
0.0
 49
0.0
140
0.0
141
0.0
142
1.0
143
1.0
 70
  1024
 72
     0
 73
     0
 74
     0
  7

 75
     0
147
1.0
148
0.0
149
0.0
100
AcDbLayout
  1
Model
 70
     0
 71
     0
 10
0.0
 20
0.0
 11
0.0
 21
0.0
 12
0.0
 22
0.0
 32
0.0
 14
0.0
 24
0.0
 34
0.0
 15
0.0
 25
0.0
 35
0.0
146
0.0
 13
0.0
 23
0.0
 33
0.0
 16
0.0
 26
0.0
 36
0.0
 17
0.0
 27
0.0
 37
0.0
 76
     0
330
A
331
0
345
0
346
0
  0
LAYOUT
  5
21
102
{ACAD_REACTORS
330
1E
102
}
100
AcDbPlotSettings
  1

  2

  4

  6

 40
0.0
 41
0.0
 42
0.0
 43
0.0
 44
0.0
 45
0.0
 46
0.0
 47
0.0
 48
0.0
 49
0.0
140
0.0
141
0.0
142
1.0
143
1.0
 70
     0
 72
     0
 73
     0
 74
     0
  7

 75
     0
147
1.0
148
0.0
149
0.0
100
AcDbLayout
  1
Layout1
 70
     0
 71
     0
 10
0.0
 20
0.0
 11
0.0
 21
0.0
 12
0.0
 22
0.0
 32
0.0
 14
0.0
 24
0.0
 34
0.0
 15
0.0
 25
0.0
 35
0.0
146
0.0
 13
0.0
 23
0.0
 33
0.0
 16
0.0
 26
0.0
 36
0.0
 17
0.0
 27
0.0
 37
0.0
 76
     0
330
B
331
0
345
0
346
0
  0
DICTIONARY
  5
1E
102
{ACAD_REACTORS
330
19
102
}
100
AcDbDictionary
280
     0
281
     1
  3
Layout1
350
21
  3
Model
350
20
  0
DICTIONARY
  5
22
102
{ACAD_REACTORS
330
19
102
}
100
AcDbDictionary
280
     0
281
     1
  0
WIPEOUTVARIABLES
  5
23
100
AcDbWipeoutVariables
 70
     1
  0
ENDSEC
  0
EOF
